img image001 image001 image001 image001 image001 image001 image001 image001 image001 image001 image001 image001 image001 image001 image001

Planets Sun Sun Sun

COVID-19 - Последняя информация о коронавирусе на сайте Минздрава


Статистика раздачи
Автор: Nickolas3434 | Размер: 744.16 МБ | Добавлен: 09 июл 2017
Раздают: 8    Качают: 1
Скачать торрент
Скачать торрент
Описание торрента

СообщениеДобавлено: 09 июл 2017 

Информация о фильме
Название: Американский оборотень в Париже
Оригинальное название: An American werewolf in Paris
Год выхода: 1997
Жанр: ужасы, фэнтези, триллер, мелодрама, комедия
Режиссер: Энтони Уоллер
В ролях: Том Эверетт Скотт, Жюли Дельпи, Винс Вьелуф, Фил Букман, Джули Боуэн, Пьер Коссо, Тьерри Лермитт, Том Новамбр, Мария Машадо, Бен Салем Буабдаллах
О фильме:
Энди, Крис и Брэд путешествуют по Европе в поисках приключений. Они находят их в Париже, в мрачных катакомбах которого владычествует могущественный клан оборотней. Однажды ночью Энди предотвращает самоубийство молодой француженки Серафин. Потрясенный ее красотой, Энди с друзьями отправляется на поиски прекрасной мадемуазель.
Оказывается, что Серафин — оборотень, и ее держит в плену глава клана Клод. Энди должен найти вакцину, которая поможет Серафин остаться человеком и расправиться с кланом, существование которого угрожает всему человечеству. К тому же Энди сам укушен оборотнем и уже чувствует, как в нем начинает шевелиться зверь…

Страна: Великобритания, Нидерланды, Люксембург, США, Франция
Студия: Hollywood Pictures, J&M Entertainment, Cometstone Pictures
Продолжительность: 01:34:26
Перевод: Авторский (одноголосый закадровый) [Сербин]
Файл
Кодек: AVC
Качество: DVDRip-AVC
Видео: 718x552@1047x552, 1028 kbps, 25 fps, 0,104 Bits/(Pixel*Frame)
Звук: AAC, 48 kHz, 2 ch, 72 kbps
Субтитры: Нет
Общее
Unique ID : 236050847162538354189377810155562094005 (0xB195BD4F88819727B3ECD5430AE44DB5)
Complete name : D:American.Werwolf.In.Paris.1997.DVDRip-AVC_by_Bathory.mkv
Format : Matroska
Format version : Version 2
File size : 744 Мбайт
Duration : 1 ч. 34 м.
Overall bit rate : 1102 Кбит/сек
Encoded date : UTC 2017-07-09 14:01:54
Writing application : mkvmerge v13.0.0 ('The Juggler') 64bit
Writing library : libebml v1.3.4 + libmatroska v1.4.5
Видео
ID : 1
Format : AVC
Format/Info : Advanced Video Codec
Format profile : High@L4.1
Format settings, CABAC : Да
Format settings, ReFrames : 14 кадров
Codec ID : V_MPEG4/ISO/AVC
Duration : 1 ч. 34 м.
Bit rate : 1028 Кбит/сек
Width : 718 пикселей
Height : 552 пикселя
Display aspect ratio : 1,897
Frame rate mode : Постоянный
Frame rate : 25,000 кадров/сек
Color space : YUV
Chroma subsampling : 4:2:0
Bit depth : 8 бит
Scan type : Прогрессивная
Bits/(Pixel*Frame) : 0.104
Stream size : 694 Мбайт (93%)
Writing library : x264 core 152 r2851 ba24899
Encoding settings : cabac=1 / ref=14 / deblock=1:-2:-2 / analyse=0x3:0x133 / me=umh / subme=11 / psy=1 / psy_rd=1.00:0.16 / mixed_ref=1 / me_range=32 / chroma_me=1 / trellis=2 / 8x8dct=1 / cqm=0 / deadzone=21,11 / fast_pskip=0 / chroma_qp_offset=-3 / threads=12 / lookahead_threads=3 / sliced_threads=0 / nr=0 / decimate=0 / interlaced=0 / bluray_compat=0 / constrained_intra=0 / bframes=16 / b_pyramid=2 / b_adapt=2 / b_bias=0 / direct=3 / weightb=1 / open_gop=0 / weightp=2 / keyint=250 / keyint_min=25 / scenecut=0 / intra_refresh=0 / rc_lookahead=60 / rc=2pass / mbtree=1 / bitrate=1028 / ratetol=1.0 / qcomp=0.60 / qpmin=0 / qpmax=51 / qpstep=4 / cplxblur=15.0 / qblur=0.5 / vbv_maxrate=50000 / vbv_bufsize=62500 / nal_hrd=none / filler=0 / ip_ratio=1.40 / aq=2:1.00
Default : Да
Forced : Нет
Аудио
ID : 2
Format : AAC
Format/Info : Advanced Audio Codec
Format profile : HE-AAC / LC
Codec ID : A_AAC
Duration : 1 ч. 34 м.
Bit rate : 72,0 Кбит/сек
Channel(s) : 2 канала
Channel positions : Front: L R
Sampling rate : 48,0 КГц / 24,0 КГц
Frame rate : 23,438 кадра/сек (1024 spf)
Compression mode : С потерями
Delay relative to video : 31 мс.
Stream size : 48,6 Мбайт (7%)
Default : Да
Forced : Нет


Релиз от:
Автор рипа: Bathory

   Похожие торренты   Торрент   Размер 
В этой теме нет новых непрочитанных сообщений. Американский оборотень в Париже / An American Werewolf in Paris (1997) BDRemux 1080p | P2, A, L1

3 | 1

19.98 ГБ

В этой теме нет новых непрочитанных сообщений. Американский оборотень в Париже / An American Werewolf in Paris (1997) BDRip 1080p | P2, A, L1

3 | 1

9.1 ГБ

В этой теме нет новых непрочитанных сообщений. Американский оборотень в Париже / An American Werewolf in Paris (1997) BDRip 720p от k.e.n & MegaPeer | P2, A, L1

0 | 3

5.76 ГБ

В этой теме нет новых непрочитанных сообщений. Американский оборотень в Лондоне / An American Werewolf in London (1981) HDRip от Scarabey | P

9 | 5

1.45 ГБ

В этой теме нет новых непрочитанных сообщений. Американский оборотень в Лондоне / An American Werewolf In London (1981) BDRip 1080p | P, A | Восстановленное издание

0 | 0

10.74 ГБ

В этой теме нет новых непрочитанных сообщений. Американский оборотень в Лондоне / An American Werewolf In London (1981) BDRip 720p от k.e.n & MegaPeer | Restored Edition

5 | 0

5.76 ГБ

В этой теме нет новых непрочитанных сообщений. Американский оборотень в Лондоне / An American Werewolf in London (Джон Лэндис) [1981, ужасы, фэнтези, комедия, BDRip] MVO

0 | 2

1.45 ГБ




Вы не можете начинать темы
Вы не можете отвечать на сообщения
Вы не можете редактировать свои сообщения
Вы не можете удалять свои сообщения
Вы не можете добавлять вложения

Перейти:  
Контактная информация: rstracker[пёсик]yandex.ru
 Вход
ppkBB3cker v.2 © 2008-2014 @ PPK
[ Time : 0.044s | 20 Queries | GZIP : Off ]

cron