img image001 image001 image001 image001 image001 image001 image001 image001 image001 image001 image001 image001 image001 image001 image001

Planets Sun Sun Sun

COVID-19 - Последняя информация о коронавирусе на сайте Минздрава


Статистика раздачи
Автор: Nickolas3434 | Размер: 745.85 МБ | Добавлен: 10 июл 2017
Раздают: 37    Качают: 0
Скачать торрент
Скачать торрент
Описание торрента

СообщениеДобавлено: 10 июл 2017 

Информация о фильме
Название: Тупой и еще тупее 2
Оригинальное название: Dumb and Dumber To
Год выхода: 2014
Жанр: комедия
Режиссер: Питер Фаррелли, Бобби Фаррелли
В ролях: Джим Керри, Джефф Дэниелс, Роб Риггл, Лори Холден, Рэйчел Мелвин, Кэтлин Тёрнер, Стив Том, Дон Лейк, Патриция Френч, Элизабет Купер
О фильме:
Гарри Данн и Ллойд Кристмас отправляются в путешествие, чтобы разыскать ребенка Гарри, о существовании которого он не подозревал.

Страна: США
Студия: Universal Pictures, Wessler Entertainment, Red Granite Pictures
Продолжительность: 01:49:52
Перевод: Дубляж
Файл
Кодек: AVC
Качество: HDRip-AVC
Видео: 736x400, 875 kbps, 23,976 fps, 0,124 Bits/(Pixel*Frame)
Звук: AAC, 48 kHz, 2 ch, 72 kbps
Субтитры: русские, английские
Общее
Unique ID : 175519643889668529190917838981671880594 (0x840BDA929B214B85A253710EA8670792)
Complete name : D:Dumb.and.Dumber.To.2014.HDRip-AVC_by_Bathory.mkv
Format : Matroska
Format version : Version 4 / Version 2
File size : 746 Мбайт
Duration : 1 ч. 49 м.
Overall bit rate : 949 Кбит/сек
Movie name : Тупой и еще тупее 2. (Tonik)
Encoded date : UTC 2017-07-10 14:00:43
Writing application : mkvmerge v8.6.1 ('Flying') 64bit
Writing library : libebml v1.3.3 + libmatroska v1.4.4
Видео
ID : 1
Format : AVC
Format/Info : Advanced Video Codec
Format profile : High@L4.1
Format settings, CABAC : Да
Format settings, ReFrames : 14 кадров
Codec ID : V_MPEG4/ISO/AVC
Duration : 1 ч. 49 м.
Bit rate : 875 Кбит/сек
Width : 736 пикселей
Height : 400 пикселей
Display aspect ratio : 1,85:1
Frame rate mode : Постоянный
Frame rate : 23,976 (23976/1000) кадра/сек
Original frame rate : 23,976 (24000/1001) кадра/сек
Color space : YUV
Chroma subsampling : 4:2:0
Bit depth : 8 бит
Scan type : Прогрессивная
Bits/(Pixel*Frame) : 0.124
Stream size : 688 Мбайт (92%)
Writing library : x264 core 148 r2744 b97ae06
Encoding settings : cabac=1 / ref=14 / deblock=1:-3:-3 / analyse=0x3:0x113 / me=umh / subme=11 / psy=1 / psy_rd=1.00:0.12 / mixed_ref=1 / me_range=32 / chroma_me=1 / trellis=2 / 8x8dct=1 / cqm=0 / deadzone=21,11 / fast_pskip=0 / chroma_qp_offset=-3 / threads=12 / lookahead_threads=3 / sliced_threads=0 / nr=0 / decimate=1 / interlaced=0 / bluray_compat=0 / constrained_intra=0 / bframes=16 / b_pyramid=2 / b_adapt=2 / b_bias=0 / direct=3 / weightb=1 / open_gop=0 / weightp=2 / keyint=240 / keyint_min=24 / scenecut=40 / intra_refresh=0 / rc_lookahead=60 / rc=2pass / mbtree=1 / bitrate=875 / ratetol=1.0 / qcomp=0.60 / qpmin=0 / qpmax=69 / qpstep=4 / cplxblur=20.0 / qblur=0.5 / ip_ratio=1.40 / aq=1:1.00
Default : Да
Forced : Нет
Аудио
ID : 2
Format : AAC
Format/Info : Advanced Audio Codec
Format profile : HE-AAC / LC
Codec ID : A_AAC
Duration : 1 ч. 49 м.
Bit rate : 72,0 Кбит/сек
Channel(s) : 2 канала
Channel positions : Front: L R
Sampling rate : 48,0 КГц / 24,0 КГц
Frame rate : 23,438 кадра/сек (1024 spf)
Compression mode : С потерями
Delay relative to video : 31 мс.
Stream size : 56,6 Мбайт (8%)
Language : Russian
Default : Да
Forced : Нет
Текст #1
ID : 3
Format : UTF-8
Codec ID : S_TEXT/UTF8
Codec ID/Info : UTF-8 Plain Text
Duration : 1 ч. 48 м.
Bit rate : 119 бит/сек
Count of elements : 2021
Stream size : 94,9 Кбайт (0%)
Language : Russian
Default : Нет
Forced : Нет
Текст #2
ID : 4
Format : UTF-8
Codec ID : S_TEXT/UTF8
Codec ID/Info : UTF-8 Plain Text
Duration : 1 ч. 47 м.
Bit rate : 74 бит/сек
Count of elements : 2077
Stream size : 59,1 Кбайт (0%)
Language : English
Default : Нет
Forced : Нет


Релиз от:
Автор рипа: Bathory

   Похожие торренты   Торрент   Размер 
В этой теме нет новых непрочитанных сообщений. Тупой и еще тупее / Dumb and Dumber (Питер Фаррелли, Бобби Фаррелли) [1994, комедия, BDRip-AVC] DVO+MVO+AVO

10 | 0

1.46 ГБ

В этой теме нет новых непрочитанных сообщений. Засекреченные списки. Тупой и ещё тупее: почему мы деградируем? (Эфир от 07.09.2019) (Рен ТВ) [2019, документальный, SATRip]

3 | 0

1.48 ГБ

В этой теме нет новых непрочитанных сообщений. Самые шокирующие гипотезы. Тупой и еще тупее! (Эфир от 30.01.2019) (Рен ТВ) [2019, документальный, WEB-DLRip]

1 | 0

682.42 МБ

В этой теме нет новых непрочитанных сообщений. Колодец / The Well (2014) HDRip-AVC от ImperiaFilm | КПК | L1

9 | 0

428.54 МБ

В этой теме нет новых непрочитанных сообщений. Тронутые / The Road Within (2014) HDRip-AVC от ImperiaFilm | iTunes

2 | 18

741.94 МБ

В этой теме нет новых непрочитанных сообщений. Тронутые / The Road Within (2014) HDRip-AVC от ImperiaFilm | iTunes

30 | 0

741.94 МБ

В этой теме нет новых непрочитанных сообщений. Если я останусь / If I Stay (2014) HDRip-AVC от ImperiaFilm | D

37 | 6

742.28 МБ




Вы не можете начинать темы
Вы не можете отвечать на сообщения
Вы не можете редактировать свои сообщения
Вы не можете удалять свои сообщения
Вы не можете добавлять вложения

Перейти:  
Контактная информация: rstracker[пёсик]yandex.ru
 Вход
ppkBB3cker v.2 © 2008-2014 @ PPK
[ Time : 0.037s | 18 Queries | GZIP : Off ]

cron