img image001 image001 image001 image001 image001 image001 image001 image001 image001 image001 image001 image001 image001 image001 image001

Planets Sun Sun Sun

COVID-19 - Последняя информация о коронавирусе на сайте Минздрава


Статистика раздачи
Автор: Nickolas3434 | Размер: 744.92 МБ | Добавлен: 12 июл 2017
Раздают: 43    Качают: 2
Скачать торрент
Скачать торрент
Описание торрента

СообщениеДобавлено: 12 июл 2017 

Информация о фильме
Название: Тринадцатый этаж
Оригинальное название: The Thirteenth Floor
Год выхода: 1999
Жанр: фантастика, триллер, детектив
Режиссер: Йозеф Руснак
В ролях: Крэйг Бирко, Гретхен Мол, Армин Мюллер-Шталь, Винсент Д’Онофрио, Деннис Хейсбёрт, Стивен Шуб, Джереми Робертс, Риф Хаттон, Леон Риппи, Джанет МакЛахлан
О фильме:
На тринадцатом этаже компьютерной корпорации была разработана совершенная модель виртуальной реальности, создание которой повлекло за собой цепь таинственных убийств. Разгадать загадку можно, лишь погрузившись в иное измерение, где может быть ответ на многие вопросы, а может быть — страшная нереальность...

Страна: Германия, США
Студия: Columbia Pictures, Centropolis Film Productions
Продолжительность: 01:40:30
Перевод: Дубляж
Файл
Кодек: AVC
Качество: BDRip-AVC
Видео: 824x344, 971 kbps, 23,976 fps, 0,143 Bits/(Pixel*Frame)
Звук: AAC, 48 kHz, 2 ch, 64 kbps
Субтитры: русские, английские
Общее
Unique ID : 175267150971352889948849046526684617540 (0x83DB39B5EEABA9B7AC58B51C1CC0DB44)
Complete name : F:The.Thirteenth. Floor.1999.BDRip-AVC_by_Bathory.mkv
Format : Matroska
Format version : Version 4 / Version 2
File size : 745 Мбайт
Duration : 1 ч. 40 м.
Overall bit rate : 1036 Кбит/сек
Movie name : Trinadcatyy.etazh.1999.BDRip-AVC_[New-team]_by_AVP_Studio
Encoded date : UTC 2017-07-11 14:56:52
Writing application : mkvmerge v13.0.0 ('The Juggler') 64bit
Writing library : libebml v1.3.4 + libmatroska v1.4.5
Видео
ID : 1
Format : AVC
Format/Info : Advanced Video Codec
Format profile : High@L4.1
Format settings, CABAC : Да
Format settings, ReFrames : 14 кадров
Codec ID : V_MPEG4/ISO/AVC
Duration : 1 ч. 40 м.
Bit rate : 971 Кбит/сек
Width : 824 пикселя
Height : 344 пикселя
Display aspect ratio : 2,40:1
Frame rate mode : Постоянный
Frame rate : 23,976 (24000/1001) кадра/сек
Color space : YUV
Chroma subsampling : 4:2:0
Bit depth : 8 бит
Scan type : Прогрессивная
Bits/(Pixel*Frame) : 0.143
Stream size : 697 Мбайт (94%)
Writing library : x264 core 152 r2851 ba24899
Encoding settings : cabac=1 / ref=14 / deblock=1:-1:-1 / analyse=0x3:0x133 / me=umh / subme=11 / psy=1 / psy_rd=1.00:0.15 / mixed_ref=1 / me_range=32 / chroma_me=1 / trellis=2 / 8x8dct=1 / cqm=0 / deadzone=21,11 / fast_pskip=0 / chroma_qp_offset=-3 / threads=11 / lookahead_threads=2 / sliced_threads=0 / nr=0 / decimate=0 / interlaced=0 / bluray_compat=0 / constrained_intra=0 / bframes=16 / b_pyramid=2 / b_adapt=2 / b_bias=0 / direct=3 / weightb=1 / open_gop=0 / weightp=2 / keyint=230 / keyint_min=22 / scenecut=0 / intra_refresh=0 / rc_lookahead=60 / rc=2pass / mbtree=1 / bitrate=971 / ratetol=1.0 / qcomp=0.60 / qpmin=0 / qpmax=51 / qpstep=4 / cplxblur=15.0 / qblur=0.5 / vbv_maxrate=50000 / vbv_bufsize=62500 / nal_hrd=none / filler=0 / ip_ratio=1.40 / aq=2:1.00
Default : Да
Forced : Нет
Аудио
ID : 2
Format : AAC
Format/Info : Advanced Audio Codec
Format profile : HE-AAC / LC
Codec ID : A_AAC
Duration : 1 ч. 40 м.
Bit rate : 64,0 Кбит/сек
Channel(s) : 2 канала
Channel positions : Front: L R
Sampling rate : 48,0 КГц / 24,0 КГц
Frame rate : 23,438 кадра/сек (1024 spf)
Compression mode : С потерями
Delay relative to video : 31 мс.
Stream size : 46,0 Мбайт (6%)
Language : Russian
Default : Да
Forced : Нет
Текст #1
ID : 3
Format : UTF-8
Codec ID : S_TEXT/UTF8
Codec ID/Info : UTF-8 Plain Text
Duration : 1 ч. 36 м.
Bit rate : 70 бит/сек
Count of elements : 976
Stream size : 49,7 Кбайт (0%)
Language : Russian
Default : Нет
Forced : Нет
Текст #2
ID : 4
Format : UTF-8
Codec ID : S_TEXT/UTF8
Codec ID/Info : UTF-8 Plain Text
Duration : 1 ч. 35 м.
Bit rate : 39 бит/сек
Count of elements : 958
Stream size : 27,9 Кбайт (0%)
Language : English
Default : Нет
Forced : Нет
Меню
00:00:00.000 : ru: Start
00:06:51.702 : ru: Fuller Stumbles
00:12:55.649 : ru: Detective McBain
00:19:57.321 : ru: Jane Fuller
00:28:39.634 : ru: Jason Whitney
00:36:42.909 : ru: Hall is Confronted
00:42:00.017 : ru: Consciousness Transfer
00:46:25.532 : ru: Download Completed
00:51:46.853 : ru: Grierson's Antique Store
00:59:19.472 : ru: Wilshire Grand Hotel
01:03:10.870 : ru: Connection Terminated
01:09:22.032 : ru: Tom Jones
01:17:07.164 : ru: Deja vu
01:22:25.982 : ru: Under Arrest
01:28:17.125 : ru: Douglas' Alibi
01:34:09.977 : ru: Grierson's Memory


Релиз от:

   Похожие торренты   Торрент   Размер 
В этой теме нет новых непрочитанных сообщений. Тринадцатый этаж / The Thirteenth Floor (1999) BDRip 1080p HEVC | D

33 | 1

3.93 ГБ

В этой теме нет новых непрочитанных сообщений. Тринадцатый этаж / The Thirteenth Floor (1999) BDRip 720p HEVC | D

20 | 1

1.86 ГБ

В этой теме нет новых непрочитанных сообщений. Тринадцатый этаж / The Thirteenth Floor (1999) HDTVRip от Scarabey | Open Matte | P

28 | 1

1.45 ГБ

В этой теме нет новых непрочитанных сообщений. Четвертый этаж / The 4th floor (1999) DVDRip | P2

7 | 0

1.46 ГБ

В этой теме нет новых непрочитанных сообщений. Мужчина по вызову / Deuce Bigalow: Male Gigolo (1999) HDRip-AVC от ImperiaFilm | P

33 | 6

744.25 МБ

В этой теме нет новых непрочитанных сообщений. Магнолия / Magnolia (1999) HDRip от ImperiaFilm | P

34 | 2

758.59 МБ

В этой теме нет новых непрочитанных сообщений. Тит – правитель Рима / Titus (1999) HDRip от ImperiaFilm | P

43 | 3

1.47 ГБ




Вы не можете начинать темы
Вы не можете отвечать на сообщения
Вы не можете редактировать свои сообщения
Вы не можете удалять свои сообщения
Вы не можете добавлять вложения

Перейти:  
Контактная информация: rstracker[пёсик]yandex.ru
 Вход
ppkBB3cker v.2 © 2008-2014 @ PPK
[ Time : 0.041s | 18 Queries | GZIP : Off ]

cron