img image001 image001 image001 image001 image001 image001 image001 image001 image001 image001 image001 image001 image001 image001 image001
Planets Sun Sun Sun
Статистика раздачи
Автор: Nickolas3434 | Размер: 2.11 ГБ | Добавлен: 13 июл 2017
Раздают: 163    Качают: 1
Скачать торрент
Скачать торрент
Описание торрента

СообщениеДобавлено: 13 июл 2017 

Затерянный город Z / The Lost City of Z
«Основано на реальной, но невероятной истории»


Год выпуска: 2016
Страна: США
Производство: Keep Your Head, MadRiver Pictures, MICA Entertainment
Жанр: Боевик, драма, приключения, биография, история
Режиссёр: Джеймс Грэй
В ролях: Чарли Ханнэм, Сиенна Миллер, Роберт Паттинсон, Том Холланд (II), Эдвард Эшли, Энгус Макфадьен, Иен МакДермид, Клайв Фрэнсис, Педро Коэльо, Мэтью Сандерлэнд
Перевод: Дублированный | iTunes
Субтитры: Нет
Реклама: Нет
Описание: Эльдорадо, таинственная столица инков, загадочный Город Z… Вымысел или реальность? В 1925 году экспедиция полковника Фоссета, члена Королевского Географического общества, бесследно исчезла в джунглях Амазонии в поисках Города Z…

Качество: BDRip-AVC
Продолжительность: 02:10:38
Формат: MKV
Видео кодек: MPEG-4 AVC
Аудио кодек: AC3
Видео: 720x302 (2.40:1), 23,976 fps, x264 ~1758 kbps avg, 0.337 bit/pixel
Аудио: 48 kHz, AC3 Dolby Digital, 3/2 (L,C,R,l,r) + LFE ch, ~384.00 kbps avg | RUS (iTunes)
Дата премьеры (мир): 15 октября 2016
Дата премьеры (РФ): 27 апреля 2017, «Парадиз»

Релиз от: Rip by:
Общее
Уникальный идентификатор : 235546297181486468758744959638578779062 (0xB134911374EB792D9FE0307CB215D3B6)
Полное имя : D:The.Lost.City.of.Z.2016.BDRip(AVC).OlLanDGroup.mkv
Формат : Matroska
Версия формата : Version 2
Размер файла : 2,11 Гбайт
Продолжительность : 2 ч. 21 м.
Общий поток : 2141 Кбит/сек
Название фильма : The.Lost.City.of.Z.2016 #TorpedoUK#
Дата кодирования : UTC 2017-07-13 04:36:03
Программа кодирования : mkvmerge v7.8.0 ('River Man') 32bit built on Apr 3 2015 12:11:22
Библиотека кодирования : libebml v1.3.1 + libmatroska v1.4.2
Видео
Идентификатор : 1
Формат : AVC
Формат/Информация : Advanced Video Codec
Профиль формата : High@L4.1
Параметр CABAC формата : Да
Параметр ReFrames формата : 10 кадров
Идентификатор кодека : V_MPEG4/ISO/AVC
Продолжительность : 2 ч. 21 м.
Битрейт : 1758 Кбит/сек
Ширина : 720 пикселей
Высота : 302 пикселя
Соотношение сторон : 2,40:1
Режим частоты кадров : Постоянный
Частота кадров : 23,976 (24000/1001) кадра/сек
Цветовое пространство : YUV
Субдискретизация насыщенности : 4:2:0
Битовая глубина : 8 бит
Тип развёртки : Прогрессивная
Бит/(Пиксели*Кадры) : 0.337
Размер потока : 1,69 Гбайт (80%)
Библиотека кодирования : x264 core 146 r2538 121396c
Настройки программы : cabac=1 / ref=10 / deblock=1:-3:-3 / analyse=0x3:0x133 / me=umh / subme=11 / psy=1 / psy_rd=1.00:0.07 / mixed_ref=1 / me_range=48 / chroma_me=1 / trellis=2 / 8x8dct=1 / cqm=0 / deadzone=21,11 / fast_pskip=0 / chroma_qp_offset=-3 / threads=6 / lookahead_threads=1 / sliced_threads=0 / nr=0 / decimate=0 / interlaced=0 / bluray_compat=0 / constrained_intra=0 / bframes=10 / b_pyramid=2 / b_adapt=2 / b_bias=0 / direct=3 / weightb=1 / open_gop=0 / weightp=2 / keyint=240 / keyint_min=23 / scenecut=40 / intra_refresh=0 / rc_lookahead=40 / rc=2pass / mbtree=0 / bitrate=1758 / ratetol=1.0 / qcomp=0.60 / qpmin=0 / qpmax=69 / qpstep=4 / cplxblur=20.0 / qblur=0.5 / vbv_maxrate=50000 / vbv_bufsize=62500 / nal_hrd=none / filler=0 / ip_ratio=1.40 / pb_ratio=1.30 / aq=1:1.00
Default : Да
Forced : Нет
Аудио
Идентификатор : 2
Формат : AC-3
Формат/Информация : Audio Coding 3
Расширение режима : CM (complete main)
Параметр Endianness формата : Big
Идентификатор кодека : A_AC3
Продолжительность : 2 ч. 21 м.
Вид битрейта : Постоянный
Битрейт : 384 Кбит/сек
Каналы : 6 каналов
Расположение каналов : Front: L C R, Side: L R, LFE
Частота : 48,0 КГц
Частота кадров : 31,250 кадров/сек (1536 spf)
Битовая глубина : 16 бит
Метод сжатия : С потерями
Размер потока : 388 Мбайт (18%)
Заголовок : iTunes
Язык : Russian
Default : Да
Forced : Нет
Текст
Идентификатор : 3
Формат : UTF-8
Идентификатор кодека : S_TEXT/UTF8
Идентификатор кодека/Информация : UTF-8 Plain Text
Заголовок : Full (SDH)
Язык : English
Default : Нет
Forced : Нет
Меню
00:00:00.000 : en:Chapter 1
00:08:21.750 : en:Chapter 2
00:15:32.847 : en:Chapter 3
00:21:29.037 : en:Chapter 4
00:27:10.045 : en:Chapter 5
00:34:57.637 : en:Chapter 6
00:44:59.112 : en:Chapter 7
00:49:36.431 : en:Chapter 8
00:58:25.918 : en:Chapter 9
01:04:43.336 : en:Chapter 10
01:11:10.599 : en:Chapter 11
01:21:22.292 : en:Chapter 12
01:27:42.421 : en:Chapter 13
01:30:42.854 : en:Chapter 14
01:39:46.229 : en:Chapter 15
01:43:59.983 : en:Chapter 16
01:51:40.193 : en:Chapter 17
01:56:11.088 : en:Chapter 18
02:01:43.045 : en:Chapter 19
02:08:34.372 : en:Chapter 20






   Похожие торренты   Торрент   Размер 
В этой теме нет новых непрочитанных сообщений. Затерянный город Z / The Lost City of Z (2016) BDRip-AVC от HELLYWOOD | iTunes

43 | 1

1.4 ГБ

В этой теме нет новых непрочитанных сообщений. Затерянный город Z / The Lost City of Z (2016) BDRip-AVC от New-Team | iTunes

25 | 0

2.85 ГБ

В этой теме нет новых непрочитанных сообщений. Затерянный город Z / The Lost City of Z (2016) BDRip от ExKinoRay | iTunes

135 | 1

1.46 ГБ

В этой теме нет новых непрочитанных сообщений. Затерянный город Z / The Lost City of Z (2016) BDRip-AVC от New-Team | iTunes

61 | 5

1.39 ГБ

В этой теме нет новых непрочитанных сообщений. Затерянный город Z / The Lost City of Z (2016) BDRip-AVC от HELLYWOOD | iTunes

40 | 0

2.85 ГБ

В этой теме нет новых непрочитанных сообщений. Затерянный город Z / The Lost City of Z (2016) BDRip 720p от ExKinoRay | iTunes

57 | 0

7.79 ГБ

В этой теме нет новых непрочитанных сообщений. Затерянный город Z / The Lost City of Z (2016) BDRip 1080p от ExKinoRay | iTunes

92 | 0

13.71 ГБ




Вы не можете начинать темы
Вы не можете отвечать на сообщения
Вы не можете редактировать свои сообщения
Вы не можете удалять свои сообщения
Вы не можете добавлять вложения

Перейти:  
Для Мосгорсуда, Роскомнадзора и рекламодателей: mosgorsud-torrent[собачка]yandex.ru
 Вход
ppkBB3cker v.2 © 2008-2014 @ PPK
[ Time : 1.095s | 19 Queries | GZIP : Off ]

cron