img image001 image001 image001 image001 image001 image001 image001 image001 image001 image001 image001 image001 image001 image001 image001

Planets Sun Sun Sun
Статистика раздачи
Автор: Nickolas3434 | Размер: 6.6 ГБ | Добавлен: 14 июл 2017
Раздают: 13    Качают: 2
Скачать торрент
Скачать торрент
Описание торрента

СообщениеДобавлено: 14 июл 2017 

Название: Непрощенный
Оригинальное название: Unforgiven
Год выпуска: 1992
Жанр: Драма, вестерн
Режиссер: Клинт Иствуд
В ролях: Клинт Иствуд, Джин Хэкмен, Морган Фримен, Ричард Харрис, Джаймз Вулветт, Сол Рубинек, Фрэнсис Фишер, Анна Левайн-Томсон, Дэвид Муччи, Роб Кэмпбелл
О фильме: Это история Уильяма Мунни — бывшего хладнокровного убийцы, нашедшего в себе силы покончить с грязным ремеслом. Он стал фермером, завел семью. И вот сейчас его жена умирает, оставляя его одного с двумя детьми. Мунни беден, ему нужны деньги. Скофилд Кид предлагает ему поймать двух ковбоев, совершивших преступление, и получить за это вознаграждение. Но все складывается совсем не так, как хотелось…

Выпущено: США, Malpaso Productions, Warner Bros. Pictures Co.
Продолжительность: 02:10:40
Перевод: Дублированный, профессиональный многоголосый, профессиональный двухголосый, авторский
Субтитры: Русские, английские
Качество: BDRip 720p
Контейнер: MKV
Видео: AVC, 1280x544 (2.35:1), 23.976 fps, 3 893 Kbps (0.233 bit/pixel)
Аудио #1: AC-3, 48.0 KHz, 2 ch, 192 Kbps, CBR (Russian) - дублированный
Аудио #2: AC-3, 48.0 KHz, 6 ch, 448 Kbps, CBR (Russian) - многоголосый Позитив-Мультимедиа
Аудио #3: AC-3, 48.0 KHz, 2 ch, 192 Kbps, CBR (Russian) - двухголосый НТВ
Аудио #4: AC-3, 48.0 KHz, 6 ch, 448 Kbps, CBR (Russian) - многоголосый R5, CP-Digital
Аудио #5: AC-3, 48.0 KHz, 6 ch, 448 Kbps, CBR (Russian) - авторский Ю.Живов
Аудио #6: AC-3, 44.1 KHz, 2 ch, 192 Kbps, CBR (Russian) - авторский Л.Володарский
Аудио #7: AC-3, 48.0 KHz, 6 ch, 384 Kbps, CBR (Russian) - авторский А.Гаврилов (ранний)
Аудио #8: AC-3, 44.1 KHz, 2 ch, 192 Kbps, CBR (Russian) - авторский А.Гаврилов (поздний)
Аудио #9: AC-3, 48.0 KHz, 2 ch, 192 Kbps, CBR (Russian) - авторский В.Горчаков
Аудио #10: AC-3, 48.0 KHz, 6 ch, 640 Kbps, CBR (English) - оригинальная звуковая дорожка
Релиз: &
x264 [info]: frame I:1567 Avg QP:14.23 size:112830 PSNR Mean Y:48.67 U:51.65 V:52.27 Avg:49.49 Global:48.78
x264 [info]: frame P:37887 Avg QP:16.48 size: 39253 PSNR Mean Y:46.55 U:49.92 V:50.57 Avg:47.44 Global:46.55
x264 [info]: frame B:148532 Avg QP:18.82 size: 14481 PSNR Mean Y:45.60 U:49.61 V:50.40 Avg:46.60 Global:45.74
Формат : Matroska
Версия формата : Version 2
Размер файла : 6,60 Гбайт
Продолжительность : 2 ч. 10 м.
Общий поток : 7223 Кбит/сек
Дата кодирования : UTC 2017-07-13 19:30:01
Программа кодирования : mkvmerge v5.3.0 ('I could have danced') built on Feb 9 2012 10:38:07
Библиотека кодирования : libebml v1.2.3 + libmatroska v1.3.0
Attachments : poster (2).jpg
Видео
Идентификатор : 1
Формат : AVC
Формат/Информация : Advanced Video Codec
Профиль формата : High@L4.1
Параметр CABAC формата : Да
Параметр ReFrames формата : 12 кадров
Идентификатор кодека : V_MPEG4/ISO/AVC
Продолжительность : 2 ч. 10 м.
Битрейт : 3893 Кбит/сек
Ширина : 1280 пикселей
Высота : 544 пикселя
Соотношение сторон : 2,35:1
Режим частоты кадров : Постоянный
Частота кадров : 23,976 (24000/1001) кадра/сек
Цветовое пространство : YUV
Субдискретизация насыщенности : 4:2:0
Битовая глубина : 8 бит
Тип развёртки : Прогрессивная
Бит/(Пиксели*Кадры) : 0.233
Размер потока : 3,43 Гбайт (52%)
Библиотека кодирования : x264 core 146 r2538 121396c
Настройки программы : cabac=1 / ref=12 / deblock=1:-3:-3 / analyse=0x3:0x133 / me=umh / subme=11 / psy=1 / psy_rd=1.00:0.00 / mixed_ref=1 / me_range=32 / chroma_me=1 / trellis=2 / 8x8dct=1 / cqm=0 / deadzone=21,11 / fast_pskip=0 / chroma_qp_offset=-2 / threads=12 / lookahead_threads=3 / sliced_threads=0 / nr=0 / decimate=1 / interlaced=0 / bluray_compat=0 / constrained_intra=0 / bframes=11 / b_pyramid=2 / b_adapt=2 / b_bias=0 / direct=3 / weightb=1 / open_gop=0 / weightp=2 / keyint=240 / keyint_min=23 / scenecut=40 / intra_refresh=0 / rc=2pass / mbtree=0 / bitrate=3893 / ratetol=1.0 / qcomp=0.60 / qpmin=0 / qpmax=69 / qpstep=4 / cplxblur=20.0 / qblur=0.5 / ip_ratio=1.40 / pb_ratio=1.30 / aq=1:0.70
Язык : English
Default : Да
Forced : Нет
Аудио #1
Идентификатор : 2
Формат : AC-3
Формат/Информация : Audio Coding 3
Расширение режима : CM (complete main)
Параметр Endianness формата : Big
Идентификатор кодека : A_AC3
Продолжительность : 2 ч. 10 м.
Вид битрейта : Постоянный
Битрейт : 192 Кбит/сек
Каналы : 2 канала
Расположение каналов : Front: L R
Частота : 48,0 КГц
Частота кадров : 31,250 кадров/сек (1536 spf)
Битовая глубина : 16 бит
Метод сжатия : С потерями
Задержка видео : 10 мс.
Размер потока : 180 Мбайт (3%)
Заголовок : Дублированный, Варус Видео
Язык : Russian
Default : Да
Forced : Нет
Аудио #2
Идентификатор : 3
Формат : AC-3
Формат/Информация : Audio Coding 3
Расширение режима : CM (complete main)
Параметр Endianness формата : Big
Идентификатор кодека : A_AC3
Продолжительность : 2 ч. 10 м.
Вид битрейта : Постоянный
Битрейт : 448 Кбит/сек
Каналы : 6 каналов
Расположение каналов : Front: L C R, Side: L R, LFE
Частота : 48,0 КГц
Частота кадров : 31,250 кадров/сек (1536 spf)
Битовая глубина : 16 бит
Метод сжатия : С потерями
Размер потока : 419 Мбайт (6%)
Заголовок : Профессиональный многоголосый, Позитив-Мультимедиа
Язык : Russian
Default : Нет
Forced : Нет
Аудио #3
Идентификатор : 4
Формат : AC-3
Формат/Информация : Audio Coding 3
Расширение режима : CM (complete main)
Параметр Endianness формата : Big
Идентификатор кодека : A_AC3
Продолжительность : 2 ч. 10 м.
Вид битрейта : Постоянный
Битрейт : 192 Кбит/сек
Каналы : 2 канала
Расположение каналов : Front: L R
Частота : 48,0 КГц
Частота кадров : 31,250 кадров/сек (1536 spf)
Битовая глубина : 16 бит
Метод сжатия : С потерями
Размер потока : 180 Мбайт (3%)
Заголовок : Профессиональный двухголосый, НТВ
Язык : Russian
Default : Нет
Forced : Нет
Аудио #4
Идентификатор : 5
Формат : AC-3
Формат/Информация : Audio Coding 3
Расширение режима : CM (complete main)
Параметр Endianness формата : Big
Идентификатор кодека : A_AC3
Продолжительность : 2 ч. 10 м.
Вид битрейта : Постоянный
Битрейт : 448 Кбит/сек
Каналы : 6 каналов
Расположение каналов : Front: L C R, Side: L R, LFE
Частота : 48,0 КГц
Частота кадров : 31,250 кадров/сек (1536 spf)
Битовая глубина : 16 бит
Метод сжатия : С потерями
Размер потока : 419 Мбайт (6%)
Заголовок : Профессиональный многоголосый, R5, CP-Digital
Default : Нет
Forced : Нет
Аудио #5
Идентификатор : 6
Формат : AC-3
Формат/Информация : Audio Coding 3
Расширение режима : CM (complete main)
Параметр Endianness формата : Big
Идентификатор кодека : A_AC3
Продолжительность : 2 ч. 10 м.
Вид битрейта : Постоянный
Битрейт : 448 Кбит/сек
Каналы : 6 каналов
Расположение каналов : Front: L C R, Side: L R, LFE
Частота : 48,0 КГц
Частота кадров : 31,250 кадров/сек (1536 spf)
Битовая глубина : 16 бит
Метод сжатия : С потерями
Размер потока : 419 Мбайт (6%)
Заголовок : Авторский одноголосый, Юрий Живов
Язык : Russian
Default : Нет
Forced : Нет
Аудио #6
Идентификатор : 7
Формат : AC-3
Формат/Информация : Audio Coding 3
Расширение режима : CM (complete main)
Параметр Endianness формата : Big
Идентификатор кодека : A_AC3
Продолжительность : 2 ч. 10 м.
Вид битрейта : Постоянный
Битрейт : 192 Кбит/сек
Каналы : 2 канала
Расположение каналов : Front: L R
Частота : 44,1 КГц
Частота кадров : 28,711 кадров/сек (1536 spf)
Битовая глубина : 16 бит
Метод сжатия : С потерями
Размер потока : 180 Мбайт (3%)
Заголовок : Авторский одноголосый, Леонид Володарский
Язык : Russian
Default : Нет
Forced : Нет
Аудио #7
Идентификатор : 8
Формат : AC-3
Формат/Информация : Audio Coding 3
Расширение режима : CM (complete main)
Параметр Endianness формата : Big
Идентификатор кодека : A_AC3
Продолжительность : 2 ч. 10 м.
Вид битрейта : Постоянный
Битрейт : 384 Кбит/сек
Каналы : 6 каналов
Расположение каналов : Front: L C R, Side: L R, LFE
Частота : 48,0 КГц
Частота кадров : 31,250 кадров/сек (1536 spf)
Битовая глубина : 16 бит
Метод сжатия : С потерями
Размер потока : 359 Мбайт (5%)
Заголовок : Авторский одноголосый, Андрей Гаврилов (поздний)
Язык : Russian
Default : Нет
Forced : Нет
Аудио #8
Идентификатор : 9
Формат : AC-3
Формат/Информация : Audio Coding 3
Расширение режима : CM (complete main)
Параметр Endianness формата : Big
Идентификатор кодека : A_AC3
Продолжительность : 2 ч. 10 м.
Вид битрейта : Постоянный
Битрейт : 192 Кбит/сек
Каналы : 2 канала
Расположение каналов : Front: L R
Частота : 44,1 КГц
Частота кадров : 28,711 кадров/сек (1536 spf)
Битовая глубина : 16 бит
Метод сжатия : С потерями
Размер потока : 180 Мбайт (3%)
Заголовок : Авторский одноголосый, Андрей Гаврилов (ранний)
Язык : Russian
Default : Нет
Forced : Нет
Аудио #9
Идентификатор : 10
Формат : AC-3
Формат/Информация : Audio Coding 3
Расширение режима : CM (complete main)
Параметр Endianness формата : Big
Идентификатор кодека : A_AC3
Продолжительность : 2 ч. 10 м.
Вид битрейта : Постоянный
Битрейт : 192 Кбит/сек
Каналы : 2 канала
Расположение каналов : Front: L R
Частота : 48,0 КГц
Частота кадров : 31,250 кадров/сек (1536 spf)
Битовая глубина : 16 бит
Метод сжатия : С потерями
Задержка видео : 24 мс.
Размер потока : 180 Мбайт (3%)
Заголовок : Авторский одноголосый, Василий Горчаков
Язык : Russian
Default : Нет
Forced : Нет
Аудио #10
Идентификатор : 11
Формат : AC-3
Формат/Информация : Audio Coding 3
Расширение режима : CM (complete main)
Параметр Endianness формата : Big
Идентификатор кодека : A_AC3
Продолжительность : 2 ч. 10 м.
Вид битрейта : Постоянный
Битрейт : 640 Кбит/сек
Каналы : 6 каналов
Расположение каналов : Front: L C R, Side: L R, LFE
Частота : 48,0 КГц
Частота кадров : 31,250 кадров/сек (1536 spf)
Битовая глубина : 16 бит
Метод сжатия : С потерями
Размер потока : 598 Мбайт (9%)
Язык : English
Default : Нет
Forced : Нет
Текст #1
Идентификатор : 12
Формат : UTF-8
Идентификатор кодека : S_TEXT/UTF8
Идентификатор кодека/Информация : UTF-8 Plain Text
Заголовок : SDH colored
Язык : English
Default : Нет
Forced : Нет
Текст #2
Идентификатор : 13
Формат : UTF-8
Идентификатор кодека : S_TEXT/UTF8
Идентификатор кодека/Информация : UTF-8 Plain Text
Заголовок : SDH
Язык : English
Default : Нет
Forced : Нет
Текст #3
Идентификатор : 14
Формат : UTF-8
Идентификатор кодека : S_TEXT/UTF8
Идентификатор кодека/Информация : UTF-8 Plain Text
Заголовок : full
Язык : English
Default : Да
Forced : Нет
Текст #4
Идентификатор : 15
Формат : UTF-8
Идентификатор кодека : S_TEXT/UTF8
Идентификатор кодека/Информация : UTF-8 Plain Text
Заголовок : full
Язык : Russian
Default : Нет
Forced : Нет
Текст #5
Идентификатор : 16
Формат : UTF-8
Идентификатор кодека : S_TEXT/UTF8
Идентификатор кодека/Информация : UTF-8 Plain Text
Заголовок : full Позитив
Язык : Russian
Default : Нет
Forced : Нет
Текст #6
Идентификатор : 17
Формат : UTF-8
Идентификатор кодека : S_TEXT/UTF8
Идентификатор кодека/Информация : UTF-8 Plain Text
Заголовок : full Варус Видео
Язык : Russian
Default : Нет
Forced : Нет
Текст #7
Идентификатор : 18
Формат : UTF-8
Идентификатор кодека : S_TEXT/UTF8
Идентификатор кодека/Информация : UTF-8 Plain Text
Заголовок : full Варус Видео 2
Язык : Russian
Default : Нет
Forced : Нет
Меню
00:00:00.000 : en:Foreword
00:01:11.863 : en:Disturbance in Big Whiskey
00:03:54.359 : en:Little Bill's "No Fuss" Fine
00:07:01.379 : en:Finances ("We Ain't Horses")
00:08:17.622 : en:The Schofield Kid's Proposal
00:14:10.808 : en:Payment Day
00:16:54.805 : en:Out of Practice
00:24:18.582 : en:"We Done Stuff for Money Before, Ned."
00:28:52.689 : en:Just a Fella Now
00:31:42.358 : en:The Majesty of Royalty
00:34:34.864 : en:No Firearms Allowed; Unafraid But No Carpenter
00:38:54.123 : en:Welcoming English Bob
00:46:24.907 : en:A Not-So-Straight Shooter
00:53:44.346 : en:The Duke of Death's True Exploits
00:58:05.273 : en:Killer's Campfire
01:00:24.912 : en:An Object Lesson in Killing
01:06:49.130 : en:Farewell to Savages
01:09:36.297 : en:Hang the Carpenter; Vision of the Dead
01:13:48.882 : en:The Hospitality of Big Whiskey
01:20:59.813 : en:The Angel of Death
01:24:46.873 : en:"We Both Got Scars"
01:29:38.998 : en:Water for a Dying Man
01:34:27.453 : en:Ned's Decision
01:36:10.890 : en:"He Had It Coming!"
01:41:11.190 : en:Little Bill Interrogates Ned
01:43:13.812 : en:Assassins Strike
01:45:50.469 : en:"It's A Helluva Thing, Killin' a Man"
01:49:19.344 : en:Will's Only Friend
01:53:14.746 : en:On Display
01:54:34.325 : en:"I'm Here to Kill You, Little Bill"
01:58:21.719 : en:Always Been Lucky; "Deserves Got Nothin' to Do with It"
02:02:13.117 : en:A Killer's Threat
02:04:32.256 : en:Epilogue and End Credits

Скриншоты:

   Похожие торренты   Торрент   Размер 
В этой теме нет новых непрочитанных сообщений. Непрощенный / Unforgiven (1992) BDRip 1080p от KORSAR | D, P, P2, A | Remastered

0 | 0

12.41 ГБ

В этой теме нет новых непрочитанных сообщений. Непрощенный / Unforgiven (1992) BDRip-HEVC 1080p от ХиМиК | D, P, A | Remastered

0 | 0

6.31 ГБ

В этой теме нет новых непрочитанных сообщений. Непрощенный / Unforgiven / Yurusarezaru mono (2013) BDRip 1080p | L1

0 | 0

9.1 ГБ

В этой теме нет новых непрочитанных сообщений. Непрощенная / The Unforgiven (1960) BDRip 720p от ExKinoRay | P

0 | 0

6.27 ГБ

В этой теме нет новых непрочитанных сообщений. Зловещие мертвецы: Армия Тьмы / Evil Dead. Army of Darkness (1992) BDRip 720p от k.e.n & MegaPeer | P, P2, A | Theatrical Cut

11 | 5

6.26 ГБ

В этой теме нет новых непрочитанных сообщений. Гладиатор / Gladiator (1992) WEB-DLRip 720p от k.e.n & MegaPeer | P, A

0 | 0

4.37 ГБ

В этой теме нет новых непрочитанных сообщений. Робокоп 3 / RoboCop 3 (1992) BDRip-AVC от MegaPeer | D

1 | 0

745.09 МБ




Вы не можете начинать темы
Вы не можете отвечать на сообщения
Вы не можете редактировать свои сообщения
Вы не можете удалять свои сообщения
Вы не можете добавлять вложения

Перейти:  
Контактная информация: rstracker[пёсик]yandex.ru
 Вход
ppkBB3cker v.2 © 2008-2014 @ PPK
[ Time : 0.037s | 19 Queries | GZIP : Off ]

cron