img image001 image001 image001 image001 image001 image001 image001 image001 image001 image001 image001 image001 image001 image001 image001 image001

Planets Sun Sun Sun
Статистика раздачи
Автор: Nickolas3434 | Размер: 4.1 ГБ | Добавлен: 18 июл 2017
Раздают: 9    Качают: 1
Скачать торрент
Скачать торрент
Описание торрента

СообщениеДобавлено: 18 июл 2017 

Информация о фильме
Название: Медведь Йоги
Оригинальное название: Yogi Bear
Год выхода: 2010
Жанр: Мультфильм, комедия, приключения, семейный
Режиссер: Эрик Бревиг
В ролях: Дэн Эйкройд, Джастин Тимберлэйк, Анна Фэрис, Томас Кэвэна, ТиДжей Миллер, Натан Кордри, Эндрю Дэйли, Джош Роберт Томпсон, Дэвид Стотт, Грег Джонсон
О фильме:
Дела в Йеллоустоунском парке идут не очень, и жадный майор Браун решает закрыть его и продать землю. А это значит, что многие семьи больше не смогут насладиться красотами природы, но, что еще хуже, Йоги и его друг Бу-Бу будут выброшены из их единственного дома, где они прожили всю жизнь. Приняв теперь величайший вызов в своей жизни, Йоги должен доказать, что он действительно «умнее обычных медведей». Он и Бу-Бу объединяются со своим старым противником рейнджером Смитом, чтобы найти способ спасти Йеллоустоун от закрытия.

Страна: США / Новая Зеландия
Студия: Warner Bros. Pictures
Продолжительность: 01:27:17
Перевод: Дубляж
Файл
Кодек: H.264
Качество: BDRip 720р от SuperMin
Видео: 1280x720 (16:9), 6269 kbps, 23.976 fps
Звук:
Русский (AC-3, 6ch, 384 kbps)
Английский (AC-3, 6ch, 640 kbps)
Субтитры: Русские (форс., полные), английские
x264 [info]: frame I:1365 Avg QP:17.93 size:209205
x264 [info]: frame P:29240 Avg QP:19.73 size: 66589
x264 [info]: frame B:85041 Avg QP:22.06 size: 18194
x264 [info]: consecutive B-frames: 4.1% 4.9% 8.6% 32.1% 22.3% 26.2% 1.3% 0.4% 0.2%
x264 [total]: encoded 115646 frames, 5.57 fps, 6269.14 kb/s
General
Unique ID : 182229037749475119905633957975225940388 (0x8918093AD35FA226B24F44CA6BC239A4)
Complete name : F:ФИЛЬМЫМедведь Йоги.2010.x264.BDRip.720p.DUB.mkv
Format : Matroska
Format version : Version 4 / Version 2
File size : 4.10 GiB
Duration : 1 h 27 min
Overall bit rate : 6 719 kb/s
Encoded date : UTC 2017-07-17 09:51:22
Writing application : mkvmerge v9.9.0 ('Pick Up') 64bit
Writing library : libebml v1.3.4 + libmatroska v1.4.5
Video
ID : 1
Format : AVC
Format/Info : Advanced Video Codec
Format profile : High@L4.1
Format settings, CABAC : Yes
Format settings, ReFrames : 9 frames
Codec ID : V_MPEG4/ISO/AVC
Duration : 1 h 20 min
Bit rate : 6 269 kb/s
Width : 1 280 pixels
Height : 720 pixels
Display aspect ratio : 16:9
Frame rate mode : Constant
Frame rate : 23.976 (24000/1001) FPS
Color space : YUV
Chroma subsampling : 4:2:0
Bit depth : 8 bits
Scan type : Progressive
Bits/(Pixel*Frame) : 0.284
Stream size : 3.52 GiB (86%)
Writing library : x264 core 146 r2538 121396c
Encoding settings : cabac=1 / ref=9 / deblock=1:-2:-2 / analyse=0x3:0x113 / me=umh / subme=11 / psy=1 / psy_rd=1.00:0.10 / mixed_ref=1 / me_range=64 / chroma_me=1 / trellis=2 / 8x8dct=1 / cqm=0 / deadzone=21,11 / fast_pskip=0 / chroma_qp_offset=-3 / threads=12 / lookahead_threads=2 / sliced_threads=0 / nr=0 / decimate=1 / interlaced=0 / bluray_compat=0 / constrained_intra=0 / bframes=8 / b_pyramid=2 / b_adapt=2 / b_bias=0 / direct=1 / weightb=1 / open_gop=0 / weightp=2 / keyint=240 / keyint_min=23 / scenecut=40 / intra_refresh=0 / rc=crf / mbtree=0 / crf=18.0 / qcomp=0.60 / qpmin=0 / qpmax=69 / qpstep=4 / ip_ratio=1.40 / pb_ratio=1.30 / aq=1:1.00
Language : English
Default : Yes
Forced : No
Audio #1
ID : 2
Format : AC-3
Format/Info : Audio Coding 3
Mode extension : CM (complete main)
Format settings, Endianness : Big
Codec ID : A_AC3
Duration : 1 h 20 min
Bit rate mode : Constant
Bit rate : 384 kb/s
Channel(s) : 6 channels
Channel positions : Front: L C R, Side: L R, LFE
Sampling rate : 48.0 kHz
Frame rate : 31.250 FPS (1536 spf)
Bit depth : 16 bits
Compression mode : Lossy
Stream size : 221 MiB (5%)
Title : Дубляж
Language : Russian
Default : Yes
Forced : No
Audio #2
ID : 3
Format : AC-3
Format/Info : Audio Coding 3
Mode extension : CM (complete main)
Format settings, Endianness : Big
Codec ID : A_AC3
Duration : 1 h 20 min
Bit rate mode : Constant
Bit rate : 640 kb/s
Channel(s) : 6 channels
Channel positions : Front: L C R, Side: L R, LFE
Sampling rate : 48.0 kHz
Frame rate : 31.250 FPS (1536 spf)
Bit depth : 16 bits
Compression mode : Lossy
Stream size : 368 MiB (9%)
Language : English
Default : No
Forced : No
Text #1
ID : 4
Format : UTF-8
Codec ID : S_TEXT/UTF8
Codec ID/Info : UTF-8 Plain Text
Duration : 1 h 26 min
Bit rate : 9 b/s
Count of elements : 127
Stream size : 5.76 KiB (0%)
Title : Forced
Language : Russian
Default : No
Forced : No
Text #2
ID : 5
Format : UTF-8
Codec ID : S_TEXT/UTF8
Codec ID/Info : UTF-8 Plain Text
Duration : 1 h 26 min
Bit rate : 108 b/s
Count of elements : 1324
Stream size : 68.9 KiB (0%)
Language : Russian
Default : No
Forced : No
Text #3
ID : 6
Format : UTF-8
Codec ID : S_TEXT/UTF8
Codec ID/Info : UTF-8 Plain Text
Duration : 1 h 19 min
Bit rate : 81 b/s
Count of elements : 1323
Stream size : 47.9 KiB (0%)
Language : English
Default : No
Forced : No
Menu
00:00:00.000 : en:00:00:00.000
00:12:01.679 : en:00:12:01.679
00:20:53.127 : en:00:20:53.127
00:30:57.272 : en:00:30:57.272
00:41:42.834 : en:00:41:42.834
00:51:03.978 : en:00:51:03.978
00:59:09.171 : en:00:59:09.171
01:12:53.786 : en:01:12:53.786



   Похожие торренты   Торрент   Размер 
В этой теме нет новых непрочитанных сообщений. Первое Рождество медведя Йоги / Yogi's First Christmas (1980) DVDRip от New-Team | D

54 | 4

1.46 ГБ

В этой теме нет новых непрочитанных сообщений. Пираньи 3D / Piranha 3D (2010) BDRip 720р от SuperMin | D

5 | 3

4.44 ГБ

В этой теме нет новых непрочитанных сообщений. Зеркала 2 / Mirrors 2 (2010) BDRip 720р от SuperMin | P

370 | 25

2.57 ГБ

В этой теме нет новых непрочитанных сообщений. Шпион по соседству / The Spy Next Door (2010) BDRip 720р от SuperMin

84 | 5

4.37 ГБ

В этой теме нет новых непрочитанных сообщений. Неоспоримый 3 / Undisputed III: Redemption (2010) BDRip 720р от SuperMin | P

108 | 5

2.73 ГБ

В этой теме нет новых непрочитанных сообщений. Большой солдат / Da bing xiao jiang (2010) BDRip 720р от SuperMin | P

180 | 8

3.29 ГБ

В этой теме нет новых непрочитанных сообщений. Альфа и Омега: Клыкастая братва / Alpha and Omega (2010) BDRip 720р от SuperMin | D

271 | 12

2.19 ГБ




Вы не можете начинать темы
Вы не можете отвечать на сообщения
Вы не можете редактировать свои сообщения
Вы не можете удалять свои сообщения
Вы не можете добавлять вложения

Перейти:  
 Вход
ppkBB3cker v.2 © 2008-2014 @ PPK
[ Time : 0.023s | 17 Queries | GZIP : Off ]

cron