img image001 image001 image001 image001 image001 image001 image001 image001 image001 image001 image001 image001 image001 image001 image001

Planets Sun Sun Sun
Статистика раздачи
Автор: Nickolas3434 | Размер: 7.48 ГБ | Добавлен: 19 июл 2017
Раздают: 25    Качают: 3
Скачать торрент
Скачать торрент
Описание торрента

СообщениеДобавлено: 19 июл 2017 

Информация о фильме
Название: Большое скандинавское ограбление / Ограбление
Оригинальное название: Nokas
Год выхода: 2010
Жанр: боевик, триллер, драма, криминал, биография
Режиссер: Эрик Шёлдбьерг
В ролях: Марит Синневе Берг, Фроде Винтер Гуннес, Мортен Ларсен, Тов Слетта, Хеге Кристин, Кьерволл Сунде, Томас Берхане, Андре Эриксен, Мортен Холанд, Геир Хёисет, Йетон Яйовски
Описание: Фильм изображает самое зрелищное ограбление в Норвегии 2004 г., когда 11 мужчин, переодетых под спецназ, захватили центр наличности Nokas и в течение двадцати минут скрылись с 57 млн. крон (около $10 млн.), в результате чего был убит офицер полиции.

Страна: Норвегия
Продолжительность: 01:26:59
Перевод: Любительский (одноголосый закадровый) Laids
Файл
Качество: BDRip 1080p
Видео: 1920x1040, 25.000 fps, 9274 kbps avg, 0.186 bit/pixel
Аудио 1: RUS DTS 48000Hz 1510 kb/s tot , 6 chnls (3/2 .1) Laids
Аудио 2: NOR DTS 48000Hz 1510 kb/s tot , 6 chnls (3/2 .1)
Субтитры: русские, английские

Общее
Полное имя : Ograblenie.2010.x264.BDRip.1080p.mkv
Формат : Matroska
Размер файла : 7,48 ГиБ
Продолжительность : 1 ч. 27 м.
Общий поток : 12,2 Мбит/сек
Дата кодирования : UTC 2011-03-14 06:16:17
Программа кодирования : mkvmerge v4.4.0 ('Die Wiederkehr') built on Oct 31 2010 21:52:48
Библиотека кодирования : libebml v1.0.0 + libmatroska v1.0.0
Видео
Идентификатор : 1
Формат : AVC
Формат/Информация : Advanced Video Codec
Профиль формата : High@L4.1
Параметр CABAC формата : Да
Параметр ReFrames формата : 4 кадра
Идентификатор кодека : V_MPEG4/ISO/AVC
Продолжительность : 1 ч. 27 м.
Битрейт : 9274 Кбит/сек
Ширина : 1920 пикселей
Высота : 1040 пикселей
Соотношение сторон : 1,85:1
Режим частоты кадров : Постоянный
Частота кадров : 25,000 кадров/сек
Цветовое пространство : YUV
Субдискретизация насыщенности : 4:2:0
Битовая глубина : 8 бит
Тип развёртки : Прогрессивная
Бит/(Пиксели*Кадры) : 0.186
Размер потока : 5,48 Гбайт (73%)
Библиотека кодирования : x264 core 113 r1884 7313bb5
Настройки программы : cabac=1 / ref=4 / deblock=1:0:0 / analyse=0x3:0x133 / me=umh / subme=7 / psy=1 / psy_rd=1.00:0.00 / mixed_ref=1 / me_range=16 / chroma_me=1 / trellis=1 / 8x8dct=1 / cqm=0 / deadzone=21,11 / fast_pskip=0 / chroma_qp_offset=-2 / threads=9 / sliced_threads=0 / nr=0 / decimate=1 / interlaced=0 / constrained_intra=0 / bframes=3 / b_pyramid=2 / b_adapt=1 / b_bias=0 / direct=1 / weightb=1 / open_gop=0 / weightp=2 / keyint=250 / keyint_min=25 / scenecut=40 / intra_refresh=0 / rc_lookahead=40 / rc=2pass / mbtree=1 / bitrate=9274 / ratetol=1.0 / qcomp=0.60 / qpmin=0 / qpmax=69 / qpstep=4 / cplxblur=20.0 / qblur=0.5 / ip_ratio=1.40 / aq=1:1.00
Язык : Norwegian
Default : Да
Forced : Нет
Аудио #1
Идентификатор : 2
Формат : DTS
Формат/Информация : Digital Theater Systems
Режим : 16
Параметр Endianness формата : Big
Идентификатор кодека : A_DTS
Продолжительность : 1 ч. 27 м.
Вид битрейта : Постоянный
Битрейт : 1510 Кбит/сек
Каналы : 6 каналов
Расположение каналов : Front: L C R, Side: L R, LFE
Частота : 48,0 КГц
Битовая глубина : 24 бит
Метод сжатия : С потерями
Размер потока : 945 Мбайт (12%)
Заголовок : Любительский одноголосый DTS 1536 kbps Laids08
Язык : Russian
Default : Да
Forced : Да
Аудио #2
Идентификатор : 3
Формат : DTS
Формат/Информация : Digital Theater Systems
Режим : 16
Параметр Endianness формата : Big
Идентификатор кодека : A_DTS
Продолжительность : 1 ч. 27 м.
Вид битрейта : Постоянный
Битрейт : 1509 Кбит/сек
Каналы : 6 каналов
Расположение каналов : Front: L C R, Side: L R, LFE
Частота : 48,0 КГц
Битовая глубина : 24 бит
Метод сжатия : С потерями
Размер потока : 945 Мбайт (12%)
Заголовок : Оригинал DTS 1536 kbps
Язык : Norwegian
Default : Нет
Forced : Нет
Текст #1
Идентификатор : 4
Формат : UTF-8
Идентификатор кодека : S_TEXT/UTF8
Идентификатор кодека/Информация : UTF-8 Plain Text
Заголовок : Субтитры ПовелительКино
Язык : Russian
Default : Нет
Forced : Нет
Текст #2
Идентификатор : 5
Формат : UTF-8
Идентификатор кодека : S_TEXT/UTF8
Идентификатор кодека/Информация : UTF-8 Plain Text
Заголовок : Субтитры
Язык : English
Default : Нет
Forced : Нет
Меню
00:00:00.000 : en:00:00:00.000
00:07:43.000 : en:00:07:43.000
00:14:19.000 : en:00:14:19.000
00:23:51.000 : en:00:23:51.000
00:30:19.000 : en:00:30:19.000
00:37:43.000 : en:00:37:43.000
00:46:19.000 : en:00:46:19.000
00:53:23.000 : en:00:53:23.000
01:01:06.640 : en:01:01:06.640
01:08:35.000 : en:01:08:35.000
01:16:02.000 : en:01:16:02.000
01:20:14.000 : en:01:20:14.000
01:22:34.520 : en:01:22:34.520



   Похожие торренты   Торрент   Размер 
В этой теме нет новых непрочитанных сообщений. Ограбление / Nokas (2010) BDRip 1080p

1 | 5

6.83 ГБ

В этой теме нет новых непрочитанных сообщений. Ограбление / Nokas (2010) BDRip 720р

1 | 2

4.64 ГБ

В этой теме нет новых непрочитанных сообщений. Ограбление / Nokas (2010) HDRip

8 | 1

1.37 ГБ

В этой теме нет новых непрочитанных сообщений. Ограбление / Nokas (2010) HDRip-AVС

4 | 1

2.2 ГБ

В этой теме нет новых непрочитанных сообщений. Ограбление / Nokas (2010) HDRip

0 | 3

699.98 МБ

В этой теме нет новых непрочитанных сообщений. Ограбление на Бейкер-Стрит / Ограбление банка / The Bank Job (2008) Blu-Ray Remux 1080p от ivandubskoj | D, P, P2, A | SPA Transfer | Open Matte

43 | 25

21.47 ГБ

В этой теме нет новых непрочитанных сообщений. Большое ограбление / Великое ограбление / Baramgwa Hamjje Sarajida / Gone With the Wind / The Grand Heist (2012) HDTVRip 720p от mi24

0 | 2

3.53 ГБ




Вы не можете начинать темы
Вы не можете отвечать на сообщения
Вы не можете редактировать свои сообщения
Вы не можете удалять свои сообщения
Вы не можете добавлять вложения

Перейти:  
Для Мосгорсуда, Роскомнадзора и рекламодателей: mosgorsud-torrent[собачка]yandex.ru
 Вход
ppkBB3cker v.2 © 2008-2014 @ PPK
[ Time : 0.047s | 19 Queries | GZIP : Off ]

cron