img image001 image001 image001 image001 image001 image001 image001 image001 image001 image001 image001 image001 image001 image001 image001

Planets Sun Sun Sun
Статистика раздачи
Автор: Nickolas3434 | Размер: 784.94 МБ | Добавлен: 03 авг 2017
Раздают: 2    Качают: 0
Скачать торрент
Скачать торрент
Описание торрента

СообщениеДобавлено: 03 авг 2017 

Записки из рая / Sticky Notes


Перевод: Любительский (двухголосый)datynet & Galina Vasyukova; перевод: Куценко, субтитры: отсутствуют
Формат: WEBRip-AVC, MKV, H.264, MP3
Страна: США, Россия, Mustard & Co, H3 Films, East 2 West Entertainment
Режиссер: Аманда Шарп / Amanda Sharp
Жанр: Драма, комедия, семейный
Продолжительность: 01:32:04
Год выпуска: 2016
В ролях: Рэй Лиотта, Роуз Лесли, Джина Родригез, Кармен Тонри, Джастин Барта, Дэйв Дэвис, Кеннет Кинт Брайан, Стэйси Дэвис, Мередит Джексон, Ахмед Хуссэйн
Описание: История о 20-летней эмоционально закрытой танцовщице из группы подтанцовки, Афине, которая мечтает отправиться в турне со звездами мировой величины. Она очень много курит и свободное время тратит на танцы и беспорядочные половые связи. Но ей необходимо вернуться домой во Флориду, чтобы ухаживать за ее больным отцом, Джеком, когда ему ставят диагноз рак легких. В детстве Джек не проявлял особой заботы об Афине, забыть о чем она пока так и не смогла.



Видео: 1280x538 (2.40:1), 25fps, MPEG4 Video (H264) ~ 1 001 Kbps avg, 0.058 bit/pixel
Аудио: 48 kHz, MPEG Layer 3, 2 ch, ~192.00 kbps avg
Доп. информация:

General
Unique ID : 238045299118514015607326621515001588809 (0xB315DB6256FD1F4B875A1A8675276C49)
Complete name : E:\Sticky Notes (2016)\Sticky.Notes.2016.720p.WEBRip.mkv
Format : Matroska
Format version : Version 4 / Version 2
File size : 785 MiB
Duration : 1h 32mn
Overall bit rate : 1 192 Kbps
Movie name : Sticky.Notes.2016.720p.WEBRip.700MB.MkvCage
Encoded date : UTC 2017-08-01 16:25:55
Writing application : mkvmerge v9.6.0 ('Slave To Your Mind') 64bit
Writing library : libebml v1.3.4 + libmatroska v1.4.5
DURATION : 01:32:04.008000000
NUMBER_OF_FRAMES : 230167
NUMBER_OF_BYTES : 132576192
_STATISTICS_WRITING_APP : mkvmerge v9.6.0 ('Slave To Your Mind') 64bit
_STATISTICS_WRITING_DATE_UTC : 2017-08-01 16:25:55
_STATISTICS_TAGS : BPS DURATION NUMBER_OF_FRAMES NUMBER_OF_BYTES

Video
ID : 1
Format : AVC
Format/Info : Advanced Video Codec
Format profile :
Format settings, CABAC : Yes
Format settings, ReFrames : 5 frames
Codec ID : V_MPEG4/ISO/AVC
Duration : 1h 32mn
Bit rate : 1 001 Kbps
Width : 1 280 pixels
Height : 538 pixels
Display aspect ratio : 2.40:1
Frame rate mode : Constant
Frame rate : 25.000 fps
Color space : YUV
Chroma subsampling : 4:2:0
Bit depth : 8 bits
Scan type : Progressive
Bits/(Pixel*Frame) : 0.058
Stream size : 643 MiB (82%)
Writing library : x264 core 133 r2334 a3ac64b
Encoding settings : cabac=1 / ref=5 / deblock=1:-1:-1 / analyse=0x3:0x113 / me=umh / subme=8 / psy=1 / psy_rd=1.00:0.00 / mixed_ref=1 / me_range=16 / chroma_me=1 / trellis=1 / 8x8dct=1 / cqm=0 / deadzone=21,11 / fast_pskip=1 / chroma_qp_offset=-2 / threads=48 / lookahead_threads=4 / sliced_threads=0 / nr=0 / decimate=1 / interlaced=0 / bluray_compat=0 / constrained_intra=0 / bframes=3 / b_pyramid=2 / b_adapt=2 / b_bias=0 / direct=3 / weightb=1 / open_gop=0 / weightp=2 / keyint=250 / keyint_min=25 / scenecut=40 / intra_refresh=0 / rc_lookahead=50 / rc=2pass / mbtree=1 / bitrate=1001 / ratetol=1.0 / qcomp=0.60 / qpmin=10 / qpmax=51 / qpstep=4 / cplxblur=20.0 / qblur=0.5 / vbv_maxrate=62500 / vbv_bufsize=78125 / nal_hrd=none / ip_ratio=1.40 / aq=1:1.00
Default : Yes
Forced : No

Audio
ID : 2
Format : MPEG Audio
Format version : Version 1
Format profile : Layer 3
Codec ID : A_MPEG/L3
Codec ID/Hint : MP3
Duration : 1h 32mn
Bit rate mode : Constant
Bit rate : 192 Kbps
Channel(s) : 2 channels
Sampling rate : 48.0 KHz
Compression mode : Lossy
Stream size : 126 MiB (16%)
Default : Yes
Forced : No






   Похожие торренты   Торрент   Размер 
В этой теме нет новых непрочитанных сообщений. Аманда О / Amanda O [1-120 из 120] (2008) WEBRip

1 | 6

8.55 ГБ

В этой теме нет новых непрочитанных сообщений. Почти семнадцать / The Edge of Seventeen (Келли Фрэмон) [2016, Драма, комедия, BDRip-AVC] MVO / Драмы

44 | 8

1.46 ГБ

В этой теме нет новых непрочитанных сообщений. Почти семнадцать / The Edge of Seventeen (Келли Фрэмон) [2016, Драма, комедия, BDRip] MVO / Драмы

83 | 9

1.46 ГБ

В этой теме нет новых непрочитанных сообщений. Моррис из Америки / Morris from America (Чед Хартиган) [2016, драма, мелодрама, комедия, HDRip] MVO / Драмы

4 | 0

1.37 ГБ

В этой теме нет новых непрочитанных сообщений. Почти семнадцать / The Edge of Seventeen (Келли Фрэмон) [2016, Драма, комедия, BDRip-AVC] MVO / Драмы

12 | 6

1.96 ГБ

В этой теме нет новых непрочитанных сообщений. Зверопой / Sing (Гарт Дженнингс) [2016, мультфильм, драма, комедия, семейный, BDRip-AVC] DUB

212 | 4

1.46 ГБ

В этой теме нет новых непрочитанных сообщений. Все любят китов / Big Miracle (Кен Куопис) [2012, драма, мелодрама, семейный, BDRip-AVC] DUB / Драмы

12 | 0

1.45 ГБ




Вы не можете начинать темы
Вы не можете отвечать на сообщения
Вы не можете редактировать свои сообщения
Вы не можете удалять свои сообщения
Вы не можете добавлять вложения

Перейти:  
Для Мосгорсуда, Роскомнадзора и рекламодателей: mosgorsud-torrent[собачка]yandex.ru
 Вход
ppkBB3cker v.2 © 2008-2014 @ PPK
[ Time : 0.038s | 20 Queries | GZIP : Off ]

cron