img image001 image001 image001 image001 image001 image001 image001 image001 image001 image001 image001 image001 image001 image001 image001 image001

Planets Sun Sun Sun
Статистика раздачи
Автор: Снежана | Размер: 4.28 ГБ | Добавлен: 22 июл 2013
Раздают: 3    Качают: 1
Скачать торрент
Скачать торрент
Описание торрента

СообщениеДобавлено: 22 июл 2013 

#77

Информация о фильме
Название: Тень «Полярной звезды»
Оригинальное название: The Shadow in the North
Год выхода: 2007
Жанр: триллер, детектив, приключения
Режиссер: Джон Александр / John Alexander
В ролях: Билли Пайпер /Billie Piper/, Джей Джей Филд /JJ Feild/, Джулиан Райнд-Татт /Julian Rhind-Tutt/, Джон Стэндинг /John Standing/, Линдси Маршал /Lyndsey Marshal/, Донья Кролл /Doña Croll/, Мэтт Смит /Matt Smith/, Джаред Харрис /Jared Harris/, Дэвид Хэрвуд /David Harewood/, Хейли Этвелл /Hayley Atwell/

О фильме:
Тень зла… Можно ли вызвать ее на спиритическом сеансе или запечатлеть на фотоснимке?

В мастерской «Гарланд и Локхард» всегда оживленно — Фред экспериментирует с новыми камерами и техникой съемок. Повзрослевшая Салли открывает свое дело. Теперь она консультант по финансовым вопросам. Джим пишет пьесы и работает в театре.

Но однажды Салли и ее друзья поневоле становятся детективами. Случайные, казалось бы, события, произошедшие с каждым из них, оказываются звеньями одной цепи. И за всеми стоит владелец компаний «Полярная звезда». Беллман всемогущ. Он торгует смертью и создает чудовищные «паровые ружья». С каждым шагом Салли, Джима и Фреда все сильнее затягивает в зловещую тень «Полярной звезды».

Страна: Великобритания
Студия: British Broadcasting Corporation (BBC)
Продолжительность: 01:34:08
Перевод: Профессиональный (многоголосый, закадровый) / Оригинал

Файл
Кодек: MPEG2 / AC3
Качество: DVD-5
Видео: MPEG-2, 720x576@1024x576 (16:9), 25.000 fps, ~5791 kbps
Аудио #1: AC-3, 48.0 KHz, 2 ch, 192 Kbps, CBR (Russian)
Аудио #2: AC-3, 48.0 KHz, 2 ch, 192 Kbps, CBR (English)
Субтитры: Русские, английские (отключаемые)

Title: Tenj polyarnoj zvezdy
Size: 4.28 Gb ( 4 482 738,00 KBytes ) - DVD-5
Enabled regions: 1, 2, 3, 4, 5, 6, 7, 8

VTS_01 :
Play Length: 00:00:12
Video: PAL 16:9 (720x576) VBR, Auto Letterboxed
Audio:
Russian (Dolby AC3, 6 ch)

VTS_02 :
Play Length: 00:00:21
Video: PAL 16:9 (720x576) VBR, Auto Letterboxed
Audio:
Russian (Dolby AC3, 2 ch)
English (Dolby AC3, 2 ch)

VTS_03 :
Play Length: 00:00:12
Video: PAL 16:9 (720x576) VBR, Auto Letterboxed
Audio:
Russian (Dolby AC3, 2 ch)
English (Dolby AC3, 2 ch)

VTS_04 :
Play Length: 01:34:08
Video: PAL 16:9 (720x576) VBR, Auto Letterboxed
Audio:
Russian (Dolby AC3, 2 ch)
English (Dolby AC3, 2 ch)
Subtitles:
Russian
English

VTS_05 :
Play Length: 00:00:50
Video: PAL 4:3 (720x576) VBR
Audio:
Russian (Dolby AC3, 2 ch)
English (Dolby AC3, 2 ch)

* Menus Information *

VIDEO_TS Menu
Video:
PAL 16:9 (720x576) VBR
Auto Pan&Scan, Auto Letterboxed
English Language Unit :
Title Menu

VTS_01 Menu
Video:
PAL 16:9 (720x576) VBR
Auto Letterboxed
Audio:
Not specified (Dolby AC3, 2 ch)
English Language Unit :
Root Menu

VTS_02 Menu
Video:
PAL 4:3 (720x576) VBR
English Language Unit :
Root Menu

VTS_03 Menu
Video:
PAL 4:3 (720x576) VBR
English Language Unit :
Root Menu

VTS_04 Menu
Video:
PAL 4:3 (720x576) VBR
English Language Unit :
Root Menu

VTS_05 Menu
Video:
PAL 4:3 (720x576) VBR
English Language Unit :
Root Menu
Общее
Полное имя : e:Тень Полярной звездыTenj polyarnoj zvezdyVIDEO_TSVTS_04_1.VOB
Формат : MPEG-PS
Размер файла : 1024 Мбайт
Продолжительность : 22 м.
Режим общего битрейта : Переменный
Общий поток : 6300 Кбит/сек

Видео
Идентификатор : 224 (0xE0)
Формат : MPEG Video
Версия формата : Version 2
Профиль формата : Main@Main
Параметр BVOP формата : Да
Параметр матрицы формата : Выборочная
Продолжительность : 22 м.
Вид битрейта : Переменный
Битрейт : 5791 Кбит/сек
Максимальный битрейт : 8000 Кбит/сек
Ширина : 720 пикселей
Высота : 576 пикселей
Соотношение сторон : 16:9
Частота кадров : 25,000 кадров/сек
Стандарт вещания : PAL
Цветовое пространство : YUV
Субдискретизация насыщенности : 4:2:0
Битовая глубина : 8 бит
Тип развёртки : Чересстрочная
Порядок развёртки : Верхнее поле первое
Метод сжатия : С потерями
Бит/(Пиксели*Кадры) : 0.559
Размер потока : 941 Мбайт (92%)

Аудио #1
Идентификатор : 189 (0xBD)-128 (0x80)
Формат : AC-3
Формат/Информация : Audio Coding 3
Расширение режима : CM (complete main)
Режим смешивания : DVD-Video
Продолжительность : 22 м.
Вид битрейта : Постоянный
Битрейт : 192 Кбит/сек
Каналы : 2 канала
Расположение каналов : Front: L R
Частота : 48,0 КГц
Битовая глубина : 16 бит
Метод сжатия : С потерями
Размер потока : 31,2 Мбайт (3%)

Аудио #2
Идентификатор : 189 (0xBD)-129 (0x81)
Формат : AC-3
Формат/Информация : Audio Coding 3
Расширение режима : CM (complete main)
Режим смешивания : DVD-Video
Продолжительность : 22 м.
Вид битрейта : Постоянный
Битрейт : 192 Кбит/сек
Каналы : 2 канала
Расположение каналов : Front: L R
Частота : 48,0 КГц
Битовая глубина : 16 бит
Метод сжатия : С потерями
Размер потока : 31,2 Мбайт (3%)

Меню



   Похожие торренты   Торрент   Размер 
В этой теме нет новых непрочитанных сообщений. Тень «Полярной звезды» / The Shadow in the North (2007) DVDRip

2 | 2

747.2 МБ

В этой теме нет новых непрочитанных сообщений. Тень «Полярной звезды» / The Shadow in the North (2007) DVDRip

7 | 7

1.43 ГБ

В этой теме нет новых непрочитанных сообщений. Тень "Полярной звезды" / The Shadow in the North (2007) DVDRip-AVC | P

0 | 0

1.99 ГБ

В этой теме нет новых непрочитанных сообщений. Тень "Полярной звезды" / The Shadow in the North (2007) DVDRip от Scarabey | P

186 | 5

1.45 ГБ

В этой теме нет новых непрочитанных сообщений. Тень "Полярной звезды" / The Shadow in the North (2007) DVDRip от Scarabey | P

163 | 23

744.05 МБ

В этой теме нет новых непрочитанных сообщений. S.T.A.L.K.E.R.: Тень Чернобыля v.1.004 / Shadow of chernobyl (2007) PC

2579 | 130

2.52 ГБ

В этой теме нет новых непрочитанных сообщений. Тень внутри / The Shadow Within (2007) DVDRip | A

0 | 0

1.46 ГБ




Вы не можете начинать темы
Вы не можете отвечать на сообщения
Вы не можете редактировать свои сообщения
Вы не можете удалять свои сообщения
Вы не можете добавлять вложения

Перейти:  
 Вход
ppkBB3cker v.2 © 2008-2014 @ PPK
[ Time : 0.032s | 18 Queries | GZIP : Off ]

cron