img image001 image001 image001 image001 image001 image001 image001 image001 image001 image001 image001 image001 image001 image001 image001

Planets Sun Sun Sun
Статистика раздачи
Автор: Nickolas3434 | Размер: 3.21 ГБ | Добавлен: 26 авг 2017
Раздают: 30    Качают: 3
Скачать торрент
Скачать торрент
Описание торрента

СообщениеДобавлено: 26 авг 2017 

Информация о фильме
Название: Красотка
Оригинальное название: Pretty Woman
Год выхода: 1990
Жанр: Мелодрама, комедия
Режиссер: Гарри Маршалл
В ролях: Ричард Гир, Джулия Робертс, Ральф Беллами, Джейсон Александер, Лора Сан Джакомо, Алекс Хайд-Вайт, Эми Ясбек, Элинор Донахью, Гектор Элизондо, Джудит Болдуин, Джейсон Рендал, Билл Эпплбаум, Трэйси Бьорк, Гари Грин, Билли Галло, Абдул Салаам Эль Раззас, Хэнк Азария


О фильме:
Классическая история Золушки в антураже Голливуда начала 90-х годов. Он - великолепный бизнесмен с неудачной личной жизнью, она - проститутка по воле обстоятельств. Они бы никогда не встретились, если бы не хитрая судьба и воля случая. И вдалеке не зазвучал всем известный мотив Роя Орбисона. Классика девяностых годов и современного кино от режиссёра Гэрри Маршала теперь и в режиссёрской версии.





Страна: США
Студия: Silver Screen Partners IV, Touchstone Pictures
Продолжительность: 02:04:48
Перевод: авторский одноголосый закадровый


Файл
Формат: MKV
Качество: BDRip-AVC
Видео: MPEG-4 AVC, 978x530, 23.976 fps, ~ 3157 Kbps
Звук: AC-3, 48.0 KHz, 5.1, 448 Kbps (A. Матвеев)
Субтитры: русские
Релиз от: Переулок Переводмана
General
Complete name : H:TorrentPretty Woman. 1990 (Director's Cut).mkv
Format : Matroska
File size : 3.21 GiB
Duration : 2h 4mn
Overall bit rate : 3 678 Kbps
Movie name : Pretty Woman (1990) - Encode by Skazhutin
Encoded date : UTC 2017-05-14 09:44:16
Writing application : mkvmerge v9.6.0 ('Slave To Your Mind') 64bit
Writing library : libebml v1.3.4 + libmatroska v1.4.5
Cover : Yes
Video
ID : 1
Format : AVC
Format/Info : Advanced Video Codec
Format profile : High@L4.1
Format settings, CABAC : Yes
Format settings, ReFrames : 15 frames
Muxing mode : Container profile=Unknown@4.1
Codec ID : V_MPEG4/ISO/AVC
Duration : 2h 4mn
Bit rate : 3 157 Kbps
Width : 978 pixels
Height : 530 pixels
Display aspect ratio : 16:9
Frame rate : 23.976 fps
Resolution : 24 bits
Colorimetry : 4:2:0
Scan type : Progressive
Bits/(Pixel*Frame) : 0.254
Stream size : 2.75 GiB (86%)
Writing library : x264 core 148 r2744kMod b97ae06
Encoding settings : cabac=1 / ref=15 / deblock=1:-2:-2 / analyse=0x3:0x133 / me=umh / subme=11 / psy=1 / fade_compensate=0.00 / psy_rd=1.00:0.00 / mixed_ref=1 / me_range=32 / chroma_me=1 / trellis=2 / 8x8dct=1 / cqm=0 / deadzone=21,11 / fast_pskip=1 / chroma_qp_offset=-2 / threads=12 / lookahead_threads=2 / sliced_threads=0 / nr=0 / decimate=1 / interlaced=0 / bluray_compat=0 / constrained_intra=0 / bframes=8 / b_pyramid=2 / b_adapt=2 / b_bias=0 / direct=1 / weightb=1 / open_gop=0 / weightp=2 / keyint=250 / keyint_min=23 / scenecut=40 / intra_refresh=0 / rc_lookahead=60 / rc=crf / mbtree=0 / crf=18.0000 / qcomp=0.60 / qpmin=0 / qpmax=69 / qpstep=4 / vbv_maxrate=62500 / vbv_bufsize=78125 / crf_max=0.0 / nal_hrd=none / filler=0 / ip_ratio=1.40 / pb_ratio=1.30 / aq=1:0.80
Audio
ID : 2
Format : AC-3
Format/Info : Audio Coding 3
Codec ID : A_AC3
Duration : 2h 4mn
Bit rate mode : Constant
Bit rate : 448 Kbps
Channel(s) : 6 channels
Channel positions : Front: L C R, Surround: L R, LFE
Sampling rate : 48.0 KHz
Stream size : 400 MiB (12%)
Title : Матвеев
Language : Russian
Text
ID : 3
Format : UTF-8
Codec ID : S_TEXT/UTF8
Codec ID/Info : UTF-8 Plain Text
Language : Russian
Menu
00:00:00.000 : en:Opening Credits
00:09:26.398 : en:Lookin' For A Date?
00:13:39.234 : en:In The Driver's Seat
00:18:51.130 : en:The Penthouse
00:34:00.038 : en:A Business Proposition
00:41:51.967 : en:Trouble At The Hotel
00:44:46.684 : en:A Setback
00:49:52.030 : en:Working Dinner
00:54:50.077 : en:Love On A Piano
01:00:35.756 : en:Shopping Spree
01:08:36.487 : en:At The Polo Match
01:17:20.636 : en:Pillow Talk
01:21:09.323 : en:Dressed To The Nines
01:29:10.177 : en:Just Semantics
01:35:29.140 : en:A Change Of Interest
01:42:23.636 : en:Unpleasant Caller
01:48:39.595 : en:Back To Reality
01:52:34.456 : en:Princess Vivian
01:56:27.189 : en:End Credits
BDRip-AVC (со вставками DVD из режиссёрки)

   Похожие торренты   Торрент   Размер 
В этой теме нет новых непрочитанных сообщений. Красотка / Pretty Woman (1990) BDRip 1080p D, P, P2, A

0 | 0

18.73 ГБ

В этой теме нет новых непрочитанных сообщений. Красотка / Pretty Woman (1990) BDRip 720p | D, P, P2, A, L1

24 | 6

14.3 ГБ

В этой теме нет новых непрочитанных сообщений. Месть / Revenge (1990) BDRip 720p от Scarabey | P2 | Режиссерская версия

7 | 0

4.19 ГБ

В этой теме нет новых непрочитанных сообщений. Красотка на всю голову / I Feel Pretty (Эбби Кон, Марк Силверштейн) [2018, комедия, BDRip] MVO

7 | 0

2.14 ГБ

В этой теме нет новых непрочитанных сообщений. Ночной народ [Режиссёрская версия] / Nightbreed [Director's Cut] (Клайв Баркер) [1990, ужасы, фэнтези, BDRip] AVO

8 | 0

1.47 ГБ

В этой теме нет новых непрочитанных сообщений. Красотка на всю голову / I Feel Pretty (Эбби Кон, Марк Силверштейн) [2018, комедия, BDRip 720p] DUB [Line]

1 | 0

5.25 ГБ

В этой теме нет новых непрочитанных сообщений. Сорвиголова / Daredevil (2003) BDRip-AVC от ExKinoRay | D | Режиссерская версия

0 | 0

1.08 ГБ




Вы не можете начинать темы
Вы не можете отвечать на сообщения
Вы не можете редактировать свои сообщения
Вы не можете удалять свои сообщения
Вы не можете добавлять вложения

Перейти:  
Контактная информация: rstracker[пёсик]yandex.ru
 Вход
ppkBB3cker v.2 © 2008-2014 @ PPK
[ Time : 0.025s | 21 Queries | GZIP : Off ]

cron