img image001 image001 image001 image001 image001 image001 image001 image001 image001 image001 image001 image001 image001 image001 image001 image001

Planets Sun Sun Sun
Статистика раздачи
Автор: Снежана | Размер: 4.35 ГБ | Добавлен: 22 июл 2013
Раздают: 0    Качают: 2
Скачать торрент
Скачать торрент
Описание торрента

СообщениеДобавлено: 22 июл 2013 

#77

Название: Предмет красоты
Оригинальное название: The Object of Beauty
Год выхода: 1991
Жанр: Драма, комедия, криминал
Режиссер: Майкл Линдсей-Хогг
В ролях: Джон Малкович, Энди МакДауэлл, Лолита Давидович, Руди Дейвис, Джосс Экленд, Билл Патерсон, Рикки Харнетт, Питер Ригерт, Джек Шепард, Розмари Мартин

О фильме:
Язвительная, острая комедия об оставшихся без средств супружеской чете, которая решается продать свою самую ценную вещицу - маленькую скульптуру Генри Мура. Когда же решение принято, они с ужасом обнаруживают, что скульптура украдена. В этот отчаянный момент их любовь и доверие друг к другу проходят испытание на прочность.


Страна: США, Великобритания
Продолжительность: 01:42:26
Перевод: Профессиональный, двухголосый

Кодек: MPEG-2
Качество: DVD-5
Видео: NTSC 16:9 (720x480) VBR
Звук: Русский, английский (Dolby AC3, 2 ch)
Субтитры: Английские



Полное имя : C:UsersСергейVideosPredmet.krasoty.1991.DVD5.NovaLanVIDEO_TSVTS_01_1.VOB
Формат : MPEG-PS
Размер файла : 1024 Мбайт
Продолжительность : 23 м.
Режим общего битрейта : Переменный
Общий поток : 6068 Кбит/сек

Видео
Идентификатор : 224 (0xE0)
Формат : MPEG Video
Версия формата : Version 2
Профиль формата : Main@Main
Параметр BVOP формата : Да
Параметр матрицы формата : Выборочная
Продолжительность : 23 м.
Вид битрейта : Переменный
Битрейт : 5563 Кбит/сек
Максимальный битрейт : 9600 Кбит/сек
Ширина : 720 пикселей
Высота : 480 пикселей
Соотношение сторон : 16:9
Частота кадров : 23,976 кадра/сек
Стандарт вещания : NTSC
Цветовое пространство : YUV
Субдискретизация насыщенности : 4:2:0
Битовая глубина : 8 бит
Тип развёртки : Прогрессивная
Порядок развёртки : 2:3 Pulldown
Метод сжатия : С потерями
Бит/(Пиксели*Кадры) : 0.671
Размер потока : 939 Мбайт (92%)

Аудио #1
Идентификатор : 189 (0xBD)-128 (0x80)
Формат : AC-3
Формат/Информация : Audio Coding 3
Расширение режима : CM (complete main)
Параметр Endianness формата : Big
Режим смешивания : DVD-Video
Продолжительность : 23 м.
Вид битрейта : Постоянный
Битрейт : 192 Кбит/сек
Каналы : 2 канала
Расположение каналов : Front: L R
Частота : 48,0 КГц
Битовая глубина : 16 бит
Метод сжатия : С потерями
Размер потока : 32,4 Мбайт (3%)

Аудио #2
Идентификатор : 189 (0xBD)-129 (0x81)
Формат : AC-3
Формат/Информация : Audio Coding 3
Расширение режима : CM (complete main)
Параметр Endianness формата : Big
Режим смешивания : DVD-Video
Продолжительность : 23 м.
Вид битрейта : Постоянный
Битрейт : 192 Кбит/сек
Каналы : 2 канала
Расположение каналов : Front: L R
Частота : 48,0 КГц
Битовая глубина : 16 бит
Метод сжатия : С потерями
Размер потока : 32,4 Мбайт (3%)

Текст
Идентификатор : 189 (0xBD)-32 (0x20)
Формат : RLE
Формат/Информация : Run-length encoding
Режим смешивания : DVD-Video
Продолжительность : 23 м.
Задержка видео : 22 с.

Меню





Релиз от:



   Похожие торренты   Торрент   Размер 
В этой теме нет новых непрочитанных сообщений. Прелестная вещь / Предмет красоты / The Object of Beauty (1991) HDTVRip от NovaLan

2 | 1

1.45 ГБ

В этой теме нет новых непрочитанных сообщений. Прелестная вещь / The Object of Beauty (1991) SATRip by Vladas

1 | 14

1.37 ГБ

В этой теме нет новых непрочитанных сообщений. Картина красоты / Изображение красоты / Picture of Beauty (2017) BDRip 1080p | L1

846 | 60

2.64 ГБ

В этой теме нет новых непрочитанных сообщений. Картина красоты / Picture of Beauty (2017) HDRip | L1

41 | 3

1.46 ГБ

В этой теме нет новых непрочитанных сообщений. Салон красоты / Beauty Shop (2005) WEB-DL 720p | P, L1

68 | 11

3.6 ГБ

В этой теме нет новых непрочитанных сообщений. Салон красоты / Beauty Shop (2005) DVDRip

32 | 7

1.37 ГБ

В этой теме нет новых непрочитанных сообщений. Апокалипсис и Королева красоты / Apocalypse and the Beauty Queen (2005) WEBRip | L2

6 | 4

740.85 МБ




Вы не можете начинать темы
Вы не можете отвечать на сообщения
Вы не можете редактировать свои сообщения
Вы не можете удалять свои сообщения
Вы не можете добавлять вложения

Перейти:  
 Вход
ppkBB3cker v.2 © 2008-2014 @ PPK
[ Time : 0.032s | 18 Queries | GZIP : Off ]

cron