img image001 image001 image001 image001 image001 image001 image001 image001 image001 image001 image001 image001 image001 image001 image001

Planets Sun Sun Sun
Статистика раздачи
Автор: Nickolas3434 | Размер: 743.49 МБ | Добавлен: 28 авг 2017
Раздают: 37    Качают: 1
Скачать торрент
Скачать торрент
Описание торрента

СообщениеДобавлено: 28 авг 2017 

Информация о фильме
Название: Робинзон Крузо
Оригинальное название: Robinson Crusoe
Год выхода: 1954
Жанр: Приключения, экранизация
Режиссёр: Луис Бунюэль / Luis Buñuel
В ролях: Дэн О’Херлихи, Хайме Фернандес, Фелипе Де Альба, Чел Лопез, Хосе Чавес, Эмилио Гариба
О фильме: Моряк Робинзон Крузо, спасшийся с потерпевшего кораблекрушение судна, добирается до берега необитаемого острова. Все остальные матросы погибли в пучине, но Крузо с кошкой и собакой доставляет с застрявшего на рифах корабля инструменты, провизию и кое-какое другое имущество...

Страна: Мексика
Студия: Oscar Dancigers Production, Producciones Tepeyac
Продолжительность: 01:25:35
Перевод: Профессиональный (многоголосый, закадровый)
Файл
Формат: avi
Качество: DVDRip (DVD5)
Видео: XviD, 640х480, 25fps, 1077kbps
Аудио: MPEG Layer 3, 2ch, 48000Hz, 128kbps

Общее
Полное имя : Robinzon.Kruzo.1954.P.DVDRip.700.CurHaJI.avi
Формат : AVI
Формат/Информация : Audio Video Interleave
Размер файла : 743 Мбайт
Продолжительность : 1 ч. 25 м.
Общий поток : 1214 Кбит/сек
Название фильма : Robinzon.Kruzo.1954.P.DVDRip.700.CurHaJI
Программа кодирования : VirtualDubMod 1.5.10.3 | www.virtualdub-fr.org || (build 2550/release)
Библиотека кодирования : VirtualDub build 35491/release
Видео
Идентификатор : 0
Формат : MPEG-4 Visual
Профиль формата : Advanced Simple@L5
Параметр BVOP формата : 1
Параметр QPel формата : Нет
Параметр GMC формата : Без точки перехода
Параметр матрицы формата : Выборочная
Идентификатор кодека : XVID
Идентификатор кодека/Подсказка : XviD
Продолжительность : 1 ч. 25 м.
Битрейт : 1077 Кбит/сек
Ширина : 640 пикселей
Высота : 480 пикселей
Соотношение сторон : 4:3
Частота кадров : 25,000 кадров/сек
Цветовое пространство : YUV
Субдискретизация насыщенности : 4:2:0
Битовая глубина : 8 бит
Тип развёртки : Прогрессивная
Метод сжатия : С потерями
Бит/(Пиксели*Кадры) : 0.140
Размер потока : 659 Мбайт (89%)
Библиотека кодирования : XviD 73
Аудио
Идентификатор : 1
Формат : MPEG Audio
Версия формата : Version 1
Профиль формата : Layer 3
Идентификатор кодека : 55
Идентификатор кодека/Подсказка : MP3
Продолжительность : 1 ч. 25 м.
Вид битрейта : Постоянный
Битрейт : 128 Кбит/сек
Каналы : 2 канала
Частота : 48,0 КГц
Метод сжатия : С потерями
Размер потока : 78,4 Мбайт (11%)
Выравнивание : Соединение по промежуткам
Продолжительность промежутка : 40 мс. (1,00 видеокадр)
Время предзагрузки промежутка : 504 мс.
Библиотека кодирования : LAME3.99r
Настройки программы : -m s -V 4 -q 2 -lowpass 17 -b 128


Релиз от:



   Похожие торренты   Торрент   Размер 
В этой теме нет новых непрочитанных сообщений. Робинзон Крузо / Robinson Crusoe (1954) DVDRip - Generalfilm

31 | 3

1.37 ГБ

В этой теме нет новых непрочитанных сообщений. Робинзон Крузо / Robinson Crusoe (2003) DVDRip | P

73 | 4

1.37 ГБ

В этой теме нет новых непрочитанных сообщений. Робинзон Крузо / Robinson Crusoe (1997) DVDRip

296 | 11

1.36 ГБ

В этой теме нет новых непрочитанных сообщений. Робинзон Крузо / Robinson Crusoe (2003) DVDRip

52 | 8

2.74 ГБ

В этой теме нет новых непрочитанных сообщений. Робинзон Крузо / Robinson Crusoe (1973) DVDRip от Youtracker | P

32 | 2

372.42 МБ

В этой теме нет новых непрочитанных сообщений. Робинзон Крузо / Robinson Crusoe (1973) DVDRip-AVC от Youtracker | P

6 | 5

372.96 МБ

В этой теме нет новых непрочитанных сообщений. Мистер Робинзон Крузо / Mr. Robinson Crusoe (1932) DVDRip | P

81 | 13

698.23 МБ




Вы не можете начинать темы
Вы не можете отвечать на сообщения
Вы не можете редактировать свои сообщения
Вы не можете удалять свои сообщения
Вы не можете добавлять вложения

Перейти:  
Для Мосгорсуда, Роскомнадзора и рекламодателей: mosgorsud-torrent[собачка]yandex.ru
 Вход
ppkBB3cker v.2 © 2008-2014 @ PPK
[ Time : 0.051s | 18 Queries | GZIP : Off ]

cron