img image001 image001 image001 image001 image001 image001 image001 image001 image001 image001 image001 image001 image001 image001 image001

Planets Sun Sun Sun

COVID-19 - Последняя информация о коронавирусе на сайте Минздрава


Статистика раздачи
Автор: Nickolas3434 | Размер: 745.86 МБ | Добавлен: 31 авг 2017
Раздают: 19    Качают: 2
Скачать торрент
Скачать торрент
Описание торрента

СообщениеДобавлено: 31 авг 2017 

Информация о фильме
Название: Космические яйца (Космобольцы)
Оригинальное название: Spaceballs
Год выхода: 1987
Жанр: фантастика, комедия, приключения, пародия
Режиссер: Мел Брукс
В ролях: Мел Брукс, Рик Моранис, Билл Пуллмэн, Джон Кэнди, Дэфни Зунига, Дик Ван Паттен
О фильме :
Обитатели планеты Космические Яйца бездарно растранжирив атмосферу собственной планеты пытаются похитить атмосферу у соседней планеты Друидия. Чтобы заставить короля Друидии открыть щит, защищающий атмосферу планету, агрессоры похищают его дочь - принцессу Веспу. Король планеты Друидия обращается к единственному, кто может сорвать планы злодеев, космическому герою Одинокому Звезде. Вместе со своим компаньоном, человеко-псом, они вступают в борьбу...

Страна: США
Студия: Brooksfilms / Metro Goldwyn Mayer
Продолжительность: 01:36:12
Перевод: Профессиональный (многоголосый, закадровый)
Файл
Формат: MKV
Качество: BDRip-AVC (BD-Remux)
Видео: MPEG-4 AVC, 736x400, ~ 1010 Кбит/с
Аудио: AAC-LC, 2 ch, ~72 Кбит/с
Общее
Уникальный идентификатор : 255198074673734699441929534945022464027 (0xBFFD5C832A1D2AB88C6BE7B1CC84501B)
Полное имя : D:MOVIESSpaceballs.1987.ExKinoRay.mkv
Формат : Matroska
Версия формата : Version 2
Размер файла : 746 Мбайт
Продолжительность : 1 ч. 36 м.
Общий поток : 1084 Кбит/сек
Дата кодирования : UTC 2017-08-29 12:29:25
Программа кодирования : mkvmerge v15.0.0 ('Duel with the Devil') 64-bit
Библиотека кодирования : libebml v1.3.5 + libmatroska v1.4.5
Видео
Идентификатор : 1
Формат : AVC
Формат/Информация : Advanced Video Codec
Профиль формата : High@L4.1
Параметр CABAC формата : Да
Параметр RefFrames формата : 9 кадров
Идентификатор кодека : V_MPEG4/ISO/AVC
Продолжительность : 1 ч. 36 м.
Битрейт : 1010 Кбит/сек
Ширина : 736 пикселей
Высота : 400 пикселей
Соотношение сторон : 1,85:1
Режим частоты кадров : Постоянный
Частота кадров : 23,976 (24000/1001) кадра/сек
Цветовое пространство : YUV
Субдискретизация насыщенности : 4:2:0
Битовая глубина : 8 бит
Тип развёртки : Прогрессивная
Бит/(Пиксели*Кадры) : 0.143
Размер потока : 695 Мбайт (93%)
Библиотека кодирования : x264 core 152 r2851kMod ba24899
Настройки программы : cabac=1 / ref=9 / deblock=1:-2:-2 / analyse=0x3:0x113 / me=umh / subme=9 / psy=1 / fade_compensate=0.00 / psy_rd=1.00:0.20 / mixed_ref=1 / me_range=32 / chroma_me=1 / trellis=1 / 8x8dct=1 / cqm=0 / deadzone=21,11 / fast_pskip=1 / chroma_qp_offset=-3 / threads=6 / lookahead_threads=1 / sliced_threads=0 / nr=0 / decimate=0 / interlaced=0 / bluray_compat=0 / constrained_intra=0 / bframes=9 / b_pyramid=2 / b_adapt=2 / b_bias=0 / direct=3 / weightb=1 / open_gop=0 / weightp=2 / keyint=240 / keyint_min=23 / scenecut=40 / intra_refresh=0 / rc_lookahead=40 / rc=2pass / mbtree=1 / bitrate=1010 / ratetol=1.0 / qcomp=0.60 / qpmin=0 / qpmax=69 / qpstep=4 / cplxblur=20.0 / qblur=0.5 / vbv_maxrate=50000 / vbv_bufsize=62500 / nal_hrd=none / filler=0 / ip_ratio=1.40 / aq=3:1.00
Default : Да
Forced : Нет
Аудио
Идентификатор : 2
Формат : AAC
Формат/Информация : Advanced Audio Codec
Профиль формата : LC
Идентификатор кодека : A_AAC
Продолжительность : 1 ч. 36 м.
Битрейт : 72,0 Кбит/сек
Каналы : 2 канала
Расположение каналов : Front: L R
Частота : 48,0 КГц
Частота кадров : 46,875 кадров/сек (1024 SPF)
Метод сжатия : С потерями
Задержка видео : 9 мс.
Размер потока : 49,5 Мбайт (7%)
Язык : Russian
Default : Да
Forced : Нет


Релиз от:

   Похожие торренты   Торрент   Размер 
В этой теме нет новых непрочитанных сообщений. Фотография Джойи / Le foto di Gioia (1987) BDRip-AVC от ExKinoRay | L1

7 | 0

746.27 МБ

В этой теме нет новых непрочитанных сообщений. Пропащие ребята / The Lost Boys (1987) BDRip-AVC от ExKinoRay | P

6 | 4

745.79 МБ

В этой теме нет новых непрочитанных сообщений. Джеймс Бонд 007: Искры из глаз / James Bond 007: The Living Daylights (1987) BDRip-AVC от ExKinoRay

9 | 5

4.84 ГБ

В этой теме нет новых непрочитанных сообщений. Акция (1987) SATRip-AVC от ExKinoRay

54 | 8

1.52 ГБ

В этой теме нет новых непрочитанных сообщений. Визит к Минотавру [01-05 из 05] (1987) SATRip-AVC от ExKinoRay

92 | 52

7.55 ГБ

В этой теме нет новых непрочитанных сообщений. Разорванный круг (1987) DVDRip-AVC от ExKinoRay

179 | 29

1.33 ГБ

В этой теме нет новых непрочитанных сообщений. Очи чёрные (1987) DVDRip-AVC от ExKinoRay

103 | 21

2.22 ГБ




Вы не можете начинать темы
Вы не можете отвечать на сообщения
Вы не можете редактировать свои сообщения
Вы не можете удалять свои сообщения
Вы не можете добавлять вложения

Перейти:  
Контактная информация: rstracker[пёсик]yandex.ru
 Вход
ppkBB3cker v.2 © 2008-2014 @ PPK
[ Time : 0.042s | 19 Queries | GZIP : Off ]

cron