img image001 image001 image001 image001 image001 image001 image001 image001 image001 image001 image001 image001 image001 image001 image001 image001

Planets Sun Sun Sun
Статистика раздачи
Автор: Nickolas3434 | Размер: 12.3 ГБ | Добавлен: 06 сен 2017
Раздают: 17    Качают: 8
Скачать торрент
Скачать торрент
Описание торрента

СообщениеДобавлено: 06 сен 2017 

Информация о фильме
Название: В лучах славы
Оригинальное название: Friday Night Lights
Год выхода: 2004
Жанр: драма, спорт
Режиссер: Питер Берг
В ролях: Дерек Люк, Лукас Блэк, Джей Эрнандес, Гаррет Хедлунд, Тим МакГроу, Билли Боб Торнтон, Ли Джексон, Ли Томпсон Янг, Гроувер Колсон, Конни Бриттон
О фильме:
«В лучах славы» — это хроники сезона 1988 года из жизни компании храбрецов — «Permian High Panthers» — самой успешной футбольной команды в истории Техаса. Молодые участники команды воспринимают каждую игру как шанс вырваться из своего маленького городка, как мимолетную мечту о звездной славе, вершин которой они могут достичь уже к своему 18-летию.
В картине нарисован яркий и выразительный образ Одессы и похожих на нее городишек, разбросанных по всей Америке, где во время осеннего сезона один раз в неделю сам городок и все надежды его обитателей оживают под манящими пятничными ночными огнями.

Страна: Германия, США
Студия: Friday Night Lights LLC, Imagine Entertainment, MDBF Filmgesellschaft mbH & Company KG, Universal Pictures
Продолжительность: 01:57:37
Перевод: Профессиональный (многоголосый, закадровый) ?
Файл
Качество: WEB-DL 1080p
Формат: Matroska
Видео: 1920x1080 at 23.976 fps, MPEG-4 AVC, ~12600 kbps avg
Аудио#1: Russian: 48 kHz, AC3, 3/2 (L,C,R,l,r) + LFE ch, ~384 kbps avg |Профессиональный многоголосый, ?|
Аудио#2: English: 48 kHz, DTS, 3/2 (L,C,R,l,r) + LFE ch, ~1509 kbps avg |Blu-ray|
Аудио#3: English: 48 kHz, E-AC3, 2.0 (L,R) ch, ~224 kbps avg |Amazon|
Субтитры: English (SDH)
***Релиз - spartanec163.
Общее
Уникальный идентификатор : 239284280752484603818540680711216106537 (0xB40479E51CEEDD518307D8CA25590C29)
Полное имя : Friday.Night.Lights.2004.Open.Matte.1080p.WEB-DL.Rus.Eng.mkv
Формат : Matroska
Версия формата : Version 4 / Version 2
Размер файла : 12,3 Гбайт
Продолжительность : 1 ч. 57 м.
Режим общего битрейта : Переменный
Общий поток : 15,0 Мбит/сек
Название фильма : Friday.Night.Lights.2004.Open.Matte.1080p.WEB-DL.Rus.Eng-spartanec163
Дата кодирования : UTC 2017-09-05 14:43:22
Программа кодирования : mkvmerge v8.3.0 ('Over the Horizon') 64bit
Библиотека кодирования : libebml v1.3.1 + libmatroska v1.4.2
Видео
Идентификатор : 1
Формат : AVC
Формат/Информация : Advanced Video Codec
Профиль формата : High@L4.0
Параметр CABAC формата : Да
Параметр ReFrames формата : 4 кадра
Идентификатор кодека : V_MPEG4/ISO/AVC
Продолжительность : 1 ч. 57 м.
Вид битрейта : Переменный
Битрейт : 12,6 Мбит/сек
Максимальный битрейт : 15,0 Мбит/сек
Ширина : 1920 пикселей
Высота : 1080 пикселей
Соотношение сторон : 16:9
Режим частоты кадров : Постоянный
Частота кадров : 23,976 кадра/сек
Цветовое пространство : YUV
Субдискретизация насыщенности : 4:2:0
Битовая глубина : 8 бит
Тип развёртки : Прогрессивная
Бит/(Пиксели*Кадры) : 0.252
Размер потока : 10,3 Гбайт (84%)
Заголовок : WEB-DL 1080p (Amazon)
Язык : English
Default : Да
Forced : Нет
Основные цвета : BT.709
Характеристики трансфера : BT.709
Коэффициенты матрицы : BT.709
Аудио #1
Идентификатор : 2
Формат : AC-3
Формат/Информация : Audio Coding 3
Расширение режима : CM (complete main)
Параметр Endianness формата : Big
Идентификатор кодека : A_AC3
Продолжительность : 1 ч. 57 м.
Вид битрейта : Постоянный
Битрейт : 384 Кбит/сек
Каналы : 6 каналов
Расположение каналов : Front: L C R, Side: L R, LFE
Частота : 48,0 КГц
Битовая глубина : 16 бит
Метод сжатия : С потерями
Размер потока : 323 Мбайт (3%)
Заголовок : AC3 5.1 384Kbps (Профессиональный, многоголосый)
Язык : Russian
Default : Да
Forced : Нет
Аудио #2
Идентификатор : 3
Формат : DTS
Формат/Информация : Digital Theater Systems
Режим : 16
Параметр Endianness формата : Big
Идентификатор кодека : A_DTS
Продолжительность : 1 ч. 57 м.
Вид битрейта : Постоянный
Битрейт : 1509 Кбит/сек
Каналы : 6 каналов
Расположение каналов : Front: L C R, Side: L R, LFE
Частота : 48,0 КГц
Битовая глубина : 24 бит
Метод сжатия : С потерями
Размер потока : 1,24 Гбайт (10%)
Заголовок : DTS 5.1 1509Kbps (Оригинал, BluRay)
Язык : English
Default : Нет
Forced : Нет
Аудио #3
Идентификатор : 4
Формат : E-AC-3
Формат/Информация : Audio Coding 3
Параметр Endianness формата : Big
Идентификатор кодека : A_EAC3
Продолжительность : 1 ч. 57 м.
Вид битрейта : Постоянный
Битрейт : 224 Кбит/сек
Каналы : 2 канала
Расположение каналов : Front: L R
Частота : 48,0 КГц
Метод сжатия : С потерями
Размер потока : 188 Мбайт (1%)
Заголовок : E-AC3 2.0 224KBps (Оригинал, Amazon)
Язык : English
Default : Нет
Forced : Нет
Текст
Идентификатор : 5
Формат : UTF-8
Идентификатор кодека : S_TEXT/UTF8
Идентификатор кодека/Информация : UTF-8 Plain Text
Заголовок : SDH, Amazon
Язык : English
Default : Нет
Forced : Нет



   Похожие торренты   Торрент   Размер 
В этой теме нет новых непрочитанных сообщений. В лучах славы: Огни ночной пятницы / Friday Night Lights (2004) HDRip | P

106 | 14

1.45 ГБ

В этой теме нет новых непрочитанных сообщений. Ночь в музее 2 / Night at the Museum: Battle of the Smithsonian (2009) WEB-DL 1080p | D, A | Open Matte

1 | 0

15.57 ГБ

В этой теме нет новых непрочитанных сообщений. Авиатор / The Aviator (2004) WEB-DL 1080p | Open Matte | D, P, P2, A

27 | 9

19.28 ГБ

В этой теме нет новых непрочитанных сообщений. Человек-паук 2 / Spider-Man 2 (2004) WEB-DL 1080p | D, P2, A | Open Matte

21 | 10

13.8 ГБ

В этой теме нет новых непрочитанных сообщений. Охотники за разумом / Mindhunters (2004) WEB-DL 1080p | D, P, P2, A | Open Matte

45 | 8

11.29 ГБ

В этой теме нет новых непрочитанных сообщений. Блэйд 3: Троица / Blade: Trinity (2004) HDTV 1080p | Open Matte

2 | 0

6.36 ГБ

В этой теме нет новых непрочитанных сообщений. Чужой против Хищника / AVP: Alien vs. Predator (2004) WEB-DL 1080p | D, P, P2, A | Театральная версия | Open Matte

6 | 0

11.9 ГБ




Вы не можете начинать темы
Вы не можете отвечать на сообщения
Вы не можете редактировать свои сообщения
Вы не можете удалять свои сообщения
Вы не можете добавлять вложения

Перейти:  
 Вход
ppkBB3cker v.2 © 2008-2014 @ PPK
[ Time : 0.455s | 18 Queries | GZIP : Off ]

cron