img image001 image001 image001 image001 image001 image001 image001 image001 image001 image001 image001 image001 image001 image001 image001

Planets Sun Sun Sun

COVID-19 - Последняя информация о коронавирусе на сайте Минздрава


Статистика раздачи
Автор: Nickolas3434 | Размер: 743.17 МБ | Добавлен: 11 сен 2017
Раздают: 46    Качают: 4
Скачать торрент
Скачать торрент
Описание торрента

СообщениеДобавлено: 11 сен 2017 

Информация о фильме
Название: Черная мама, белая мама
Оригинальное название: Black Mama White Mama
Год выхода: 1973
Жанр: Триллер, драма, криминал,
Режиссер: Эдди Ромеро
В ролях: Пэм Гриер, Маргарет Марков, Сид Хэйг, Линн Борден, Zaldy Zschornack, Лори Бертон, Эдди Гарсиа, Алона Алегри, Дино Фернандо, Вик Диаз
О фильме:
70-е. В некой “банановой республике” неспокойно. Народ протестует, а погрязшая в коррупции власть, играя стероидными мускулами, активно наполняет тюрьмы. Маховик репрессий не щадит никого. Даже женщин. Две заключённые, беленькая и чёрненькая, не могут ужиться, их связывают цепью, чтобы безопаснее конвоировать. Однако те сбегают. И, словно кошки, пробираются через дикую местность, разжигая попутно кровавые перестрелки между бандитами и группой местных революционеров...

Страна: США
Студия: Metro-Goldwyn-Mayer
Продолжительность: 01:26:38
Перевод: Профессиональный (двухголосый закадровый) - НТВ
Файл
Кодек: XviD
Качество: HDRip Исходник
Видео: 624x336 (1.85:1), 23.976 fps, XviD build 73 ~1093 kbps avg, 0.22 bit/pixel
Звук: 48 kHz, MPEG Layer 3, 1 ch, ~96.00 kbps avg
Субтитры: Отсутствуют
Семпл
General
Complete name : D:Изготовление рипаBlack.Mama.White.Mama.1973.HDRip by shkiper.avi
Format : AVI
Format/Info : Audio Video Interleave
File size : 743 MiB
Duration : 1 h 26 min
Overall bit rate : 1 199 kb/s
Writing application : VirtualDubMod 1.5.10.3 | www.virtualdub-fr.org || (build 2550/release)
Writing library : VirtualDubMod build 2550/release
Video
ID : 0
Format : MPEG-4 Visual
Format profile : Advanced Simple@L5
Format settings, BVOP : 1
Format settings, QPel : No
Format settings, GMC : No warppoints
Format settings, Matrix : Custom
Codec ID : XVID
Codec ID/Hint : XviD
Duration : 1 h 26 min
Bit rate : 1 094 kb/s
Width : 624 pixels
Height : 336 pixels
Display aspect ratio : 1.85:1
Frame rate : 23.976 (24000/1001) FPS
Color space : YUV
Chroma subsampling : 4:2:0
Bit depth : 8 bits
Scan type : Progressive
Compression mode : Lossy
Bits/(Pixel*Frame) : 0.218
Stream size : 678 MiB (91%)
Writing library : XviD 73
Audio
ID : 1
Format : MPEG Audio
Format version : Version 1
Format profile : Layer 3
Codec ID : 55
Codec ID/Hint : MP3
Duration : 1 h 26 min
Bit rate mode : Constant
Bit rate : 96.0 kb/s
Channel(s) : 1 channel
Sampling rate : 48.0 kHz
Compression mode : Lossy
Stream size : 59.5 MiB (8%)
Alignment : Aligned on interleaves
Interleave, duration : 42 ms (1.00 video frame)
Interleave, preload duratio : 504 ms
Writing library : LAME3.99r
Encoding settings : -m m -V 4 -q 2 -lowpass 20.5 -b 96

Релиз от:

   Похожие торренты   Торрент   Размер 
В этой теме нет новых непрочитанных сообщений. Черная мамаша, белая мамаша / Black Mama White Mama (1975) BDRip 720p | P2

42 | 6

5.38 ГБ

В этой теме нет новых непрочитанных сообщений. Мама Кунг-фу (Королева кулака) / Kung Fu Mama aka Queen Of Fists (1973) DVDRip от ImperiaFilm | L1

0 | 0

745.57 МБ

В этой теме нет новых непрочитанных сообщений. Мама Кунг-фу (Королева кулака) / Kung Fu Mama aka Queen Of Fists (1973) DVD9 | Custom | L1

0 | 3

5.36 ГБ

В этой теме нет новых непрочитанных сообщений. Мама-четвероклассница / Mama wa Shougaku 4 Nensei [01-28 из 51] (1992) DVDRip | L1

0 | 1

8.9 ГБ

В этой теме нет новых непрочитанных сообщений. Мама / Mama (2013) BDRip 720p от KinoGadget | iPad | D

28 | 4

1.54 ГБ

В этой теме нет новых непрочитанных сообщений. Кровавая мама / Bloody Mama (1970) HDTV 1080i | P2

10 | 1

3.87 ГБ

В этой теме нет новых непрочитанных сообщений. Мама-четвероклассница / Mama wa Shougaku 4 Nensei [01-26 из 51] (1992) DVDRip | L1

0 | 1

8.21 ГБ




Вы не можете начинать темы
Вы не можете отвечать на сообщения
Вы не можете редактировать свои сообщения
Вы не можете удалять свои сообщения
Вы не можете добавлять вложения

Перейти:  
Контактная информация: rstracker[пёсик]yandex.ru
 Вход
ppkBB3cker v.2 © 2008-2014 @ PPK
[ Time : 0.034s | 17 Queries | GZIP : Off ]

cron