img image001 image001 image001 image001 image001 image001 image001 image001 image001 image001 image001 image001 image001 image001 image001

Planets Sun Sun Sun

COVID-19 - Последняя информация о коронавирусе на сайте Минздрава


Статистика раздачи
Автор: Nickolas3434 | Размер: 1.46 ГБ | Добавлен: 13 сен 2017
Раздают: 33    Качают: 3
Скачать торрент
Скачать торрент
Описание торрента

СообщениеДобавлено: 13 сен 2017 

Сказки юга / Southland Tales
Страна: Франция Германия США
Производство: Universal Pictures, Academy Film, Darko Entertainment, Destination Films, Inferno Distribution, Wild Bunch
Год выпуска: 2006
Жанр: фантастика, триллер, комедия, детектив
Продолжительность: 02:24:33
Режиссер: Ричард Келли
Автор сценария: Ричард Келли
В ролях: Сара Мишель Геллар, Дуэйн Джонсон, Джанин Гарофало, Кристофер Ламберт, Джастин Тимберлэйк, Кевин Смит, Мэнди Мур, Холмс Осборн
Описание: В 2008 году, после Третьей мировой войны, Лос-Анджелес находится на пороге социальной, экономической и природной катастрофы. Звезда боевиков, параноидальный шизофреник Боксер Сантариос, страдает амнезией и периодически видит будущее. Его жизнь переплетается с жизнями Кристы Нау, звездой кино для взрослых, которая разрабатывает своё собственное телевизионное реалити-шоу…

Перевод: Авторский (одноголосый, закадровый) | Юрий Сербин
Субтитры: нет

Качество: BDRip | исходник BDRemux 1080p - SOUTHLAND_TALES
Формат: AVI
Видео кодек: XviD
Аудио кодек: AC3
Видео: 720x304 (2.35:1), 23.976 fps, XviD build 73 ~1 240 kbps avg
Аудио: 48.0 kHz, AC3 Dolby Digital, 2/0 (L,R) ch, ~192 kbps
Дата премьеры (мир): 21 мая 2006

General
Полное имя : Сказки юга (фантастика, триллер, драма 2009 год).avi
Формат : AVI
Формат/Информация : Audio Video Interleave
Размер файла : 1,46 Гбайт
Продолжительность : 2 ч. 24 м.
Общий поток : 1441 Кбит/сек
Программа кодирования : VirtualDubMod 1.5.10.2 (build 2540/release)
Библиотека кодирования : VirtualDubMod build 2540/release
Видео
Идентификатор : 0
Формат : MPEG-4 Visual
Профиль формата : Advanced Simple@L5
Параметр BVOP формата : 2
Параметр QPel формата : Нет
Параметр GMC формата : Без точки перехода
Параметр матрицы формата : Выборочная
Идентификатор кодека : XVID
Идентификатор кодека/Подсказка : XviD
Продолжительность : 2 ч. 24 м.
Битрейт : 1240 Кбит/сек
Ширина : 720 пикселей
Высота : 304 пикселя
Соотношение сторон : 2,35:1
Частота кадров : 23,976 (23976/1000) кадра/сек
Цветовое пространство : YUV
Субдискретизация насыщенности : 4:2:0
Битовая глубина : 8 бит
Тип развёртки : Прогрессивная
Метод сжатия : С потерями
Бит/(Пиксели*Кадры) : 0.236
Размер потока : 1,25 Гбайт (86%)
Библиотека кодирования : XviD 73
Аудио
Идентификатор : 1
Формат : AC-3
Формат/Информация : Audio Coding 3
Расширение режима : CM (complete main)
Параметр Endianness формата : Big
Идентификатор кодека : 2000
Продолжительность : 2 ч. 24 м.
Вид битрейта : Постоянный
Битрейт : 192 Кбит/сек
Каналы : 2 канала
Расположение каналов : Front: L R
Частота : 48,0 КГц
Частота кадров : 31,250 кадров/сек (1536 spf)
Метод сжатия : С потерями
Размер потока : 199 Мбайт (13%)
Выравнивание : Разделение по промежуткам
Продолжительность промежутка : 42 мс. (1,00 видеокадр)
Время предзагрузки промежутка : 500 мс.

   Похожие торренты   Торрент   Размер 
В этой теме нет новых непрочитанных сообщений. Необычные сказки / Extraordinary Tales (2013) BDRip 1080p | L2, L1

1 | 0

4.76 ГБ

В этой теме нет новых непрочитанных сообщений. Пираты Карибского моря: Мертвецы не рассказывают сказки / Pirates of the Caribbean: Dead Men Tell No Tales (2017) BDRip 1080p от ExKinoRay

2460 | 236

11.53 ГБ

В этой теме нет новых непрочитанных сообщений. Пираты Карибского моря: Мертвецы не рассказывают сказки / Pirates of the Caribbean: Dead Men Tell No Tales (2017) BDRip-AVC от HELLYWOOD | Ли

232 | 12

5.76 ГБ

В этой теме нет новых непрочитанных сообщений. Пираты Карибского моря: Мертвецы не рассказывают сказки / Pirates of the Caribbean: Dead Men Tell No Tales (2017) BDRip от GeneralFilm | Лицензия

253 | 7

1.46 ГБ

В этой теме нет новых непрочитанных сообщений. Пираты Карибского моря: Мертвецы не рассказывают сказки / Pirates of the Caribbean: Dead Men Tell No Tales (2017) BDRip от ExKinoRay | Лицензия

641 | 27

1.46 ГБ

В этой теме нет новых непрочитанных сообщений. Пираты Карибского моря: Мертвецы не рассказывают сказки / Pirates of the Caribbean: Dead Men Tell No Tales (2017) BDRip от ExKinoRay | Лицензия

1775 | 98

2.18 ГБ

В этой теме нет новых непрочитанных сообщений. Пираты Карибского моря: Мертвецы не рассказывают сказки / Pirates of the Caribbean: Dead Men Tell No Tales (2017) BDRip от MegaPeer | Лицензия

283 | 12

795.12 МБ




Вы не можете начинать темы
Вы не можете отвечать на сообщения
Вы не можете редактировать свои сообщения
Вы не можете удалять свои сообщения
Вы не можете добавлять вложения

Перейти:  
Контактная информация: rstracker[пёсик]yandex.ru
 Вход
ppkBB3cker v.2 © 2008-2014 @ PPK
[ Time : 0.032s | 18 Queries | GZIP : Off ]

cron