img image001 image001 image001 image001 image001 image001 image001 image001 image001 image001 image001 image001 image001 image001 image001

Planets Sun Sun Sun

COVID-19 - Последняя информация о коронавирусе на сайте Минздрава


Статистика раздачи
Автор: Nickolas3434 | Размер: 7.05 ГБ | Добавлен: 26 сен 2017
Раздают: 33    Качают: 10
Скачать торрент
Скачать торрент
Описание торрента

СообщениеДобавлено: 26 сен 2017 

«This summer, the galaxy won't save itself»

Год выпуска: 2017
Производство: США / Marvel Studios Inc., Walt Disney Pictures
Жанр: Фантастика, боевик, приключения, комедия
Режиссер: Джеймс Ганн
Продюсеры: Виктория Алонсо, Луис Д’Эспозито, Кевин Файги
Актеры: Крис Пратт, Зои Салдана, Дэйв Батиста, Вин Дизель, Брэдли Купер, Майкл Рукер, Карен Гиллан, Пом Клементьефф, Элизабет Дебики, Курт Рассел
Описание:
Все в сборе: землянин Питер Квилл (Звездный Лорд), молчаливый громила Дракс, зеленокожая наемница Гамора, живое дерево Грут и говорящий енот. Герои не изменяют себе и с завидной регулярностью продолжают попадать в немыслимые ситуации, выпутываясь из них почти без ущерба (а иногда даже с пользой) для окружающих. На этот раз им предстоит раскрыть одну из самых главных тайн во всей Галактике: кто же на самом деле отец Питера Квилла?
Перевод: Дублированный
Субтитры: Английские, русские

Дата мировой премьеры: 19 апреля 2017
Дата российской премьеры: 4 мая 2017, «WDSSPR»
Дата выхода DVD релиза: 5 сентября 2017, «Уолт Дисней Компани СНГ»

Продолжительность: 02:15:36
Качество видео: DVD9
Видео: MPEG-2, 720x480@853x480 (NTSC 16:9), ~5700 Кбит/сек
Аудио 1: AC3 5.1, 448 Кбит/сек [Английский - оригинал]
Аудио 2: AC3 2.0, 192 Кбит/сек [Английский - комментарии]
Аудио 3: AC3 5.1, 448 Кбит/сек [Русский - дублированный]
Доп. материалы: Ролики
Title: Guardians of the Galaxy Vol. 2 (2017) DVD9 NTSC
Size: 7.05 Gb ( 7 394 810,00 KBytes ) - DVD-9
Enabled regions: 1, 2, 3, 4, 5, 6, 7, 8
VTS_01 :
Play Length: 00:00:00
Video: NTSC 16:9 (720x480) VBR, Auto Pan&Scan
Audio:
Not specified (Dolby AC3, 2 ch)
Not specified (Dolby AC3, 2 ch)
Not specified (Dolby AC3, 2 ch)
Not specified (Dolby AC3, 2 ch)
Not specified (Dolby AC3, 2 ch)
Not specified (Dolby AC3, 2 ch)
Not specified (Dolby AC3, 2 ch)
Not specified (Dolby AC3, 2 ch)
Subtitles:
Not specified
Not specified
Not specified
Not specified
Not specified
Not specified
Not specified
Not specified
Not specified
Not specified
Not specified
Not specified
VTS_02 :
Play Length: 00:00:38
Video: NTSC 16:9 (720x480) VBR, Auto Letterboxed
Audio:
English (Dolby AC3, 6 ch)
VTS_03 :
Play Length: 00:00:00
Video: NTSC 16:9 (720x480) VBR, Auto Letterboxed
VTS_04 :
Play Length: 00:00:00
Video: NTSC 16:9 (720x480) VBR, Auto Letterboxed
VTS_05 :
Play Length: 00:00:02+00:00:02+00:00:25
Video: NTSC 16:9 (720x480) VBR, Auto Pan&Scan
VTS_06 :
Play Length: 00:02:08+00:02:01+00:00:00+00:00:00+00:03:36+00:02:01+00:00:00+00:00:00
Video: NTSC 16:9 (720x480) VBR, Auto Letterboxed
Audio:
English (Dolby AC3, 6 ch)
VTS_07 :
Play Length: 00:00:00
Video: NTSC 16:9 (720x480) VBR, Auto Letterboxed
VTS_08 :
Play Length: 02:15:36
Video: NTSC 16:9 (720x480) VBR, Auto Letterboxed
Audio:
English (Dolby AC3, 6 ch)
English (Dolby AC3, 2 ch)
Russian (Dolby AC3, 6 ch)
Subtitles:
English
Russian
Russian
* Menus Information *
VIDEO_TS Menu
Video:
NTSC 16:9 (720x480) VBR
Auto Pan&Scan
Audio:
Not specified (Dolby AC3, 2 ch)
English Language Unit :
Title Menu
VTS_01 Menu
Video:
NTSC 4:3 (720x480) VBR
Auto Pan&Scan, Auto Letterboxed
English Language Unit :
Root Menu
VTS_02 Menu
Video:
NTSC 16:9 (720x480) VBR
Auto Pan&Scan
English Language Unit :
Root Menu
Audio Menu
Angle menu
Chapter (PTT) Menu
VTS_03 Menu
Video:
NTSC 16:9 (720x480) VBR
Auto Pan&Scan
English Language Unit :
Root Menu
VTS_04 Menu
Video:
NTSC 16:9 (720x480) VBR
Auto Pan&Scan
English Language Unit :
Root Menu
VTS_05 Menu
Video:
NTSC 16:9 (720x480) VBR
Auto Pan&Scan
English Language Unit :
Root Menu
Angle menu
VTS_06 Menu
Video:
NTSC 4:3 (720x480) VBR
Auto Pan&Scan, Auto Letterboxed
English Language Unit :
Root Menu
VTS_07 Menu
Video:
NTSC 16:9 (720x480) VBR
Auto Pan&Scan
Audio:
Not specified (Dolby AC3, 6 ch)
English Language Unit :
Root Menu
Angle menu
VTS_08 Menu
Video:
NTSC 4:3 (720x480) VBR
Auto Pan&Scan, Auto Letterboxed
English Language Unit :
Root Menu
Angle menu
Общее
Полное имя : F:Guardians of the Galaxy Vol. 2 (2017) DVD9 NTSCVIDEO_TSVTS_08_2.VOB
Формат : MPEG-PS
Размер файла : 1024 Мбайт
Продолжительность : 20 м.
Режим общего битрейта : Переменный
Общий поток : 6937 Кбит/сек
Видео
Идентификатор : 224 (0xE0)
Формат : MPEG Video
Версия формата : Version 2
Профиль формата : Main@Main
Параметр BVOP формата : Да
Параметр матрицы формата : Выборочная
Параметр GOP формата : Variable
Продолжительность : 20 м.
Вид битрейта : Переменный
Битрейт : 5711 Кбит/сек
Максимальный битрейт : 9800 Кбит/сек
Ширина : 720 пикселей
Высота : 480 пикселей
Соотношение сторон : 16:9
Частота кадров : 23,976 (24000/1001) кадра/сек
Стандарт вещания : Component
Цветовое пространство : YUV
Субдискретизация насыщенности : 4:2:0
Битовая глубина : 8 бит
Тип развёртки : Прогрессивная
Порядок развёртки : 2:3 Pulldown
Метод сжатия : С потерями
Бит/(Пиксели*Кадры) : 0.689
Временной код первого кадра : 01:20:43;21
Оригинал временного кода : Group of pictures header
Размер потока : 843 Мбайт (82%)
Основные цвета : BT.601 NTSC
Характеристики трансфера : BT.601
Коэффициенты матрицы : BT.601
Аудио #1
Идентификатор : 189 (0xBD)-128 (0x80)
Формат : AC-3
Формат/Информация : Audio Coding 3
Расширение режима : CM (complete main)
Параметр Endianness формата : Big
Режим смешивания : DVD-Video
Продолжительность : 20 м.
Вид битрейта : Постоянный
Битрейт : 448 Кбит/сек
Каналы : 6 каналов
Расположение каналов : Front: L C R, Side: L R, LFE
Частота : 48,0 КГц
Частота кадров : 31,250 кадров/сек (1536 spf)
Метод сжатия : С потерями
Задержка видео : -570 мс.
Размер потока : 66,1 Мбайт (6%)
Аудио #2
Идентификатор : 189 (0xBD)-129 (0x81)
Формат : AC-3
Формат/Информация : Audio Coding 3
Расширение режима : CM (complete main)
Параметр Endianness формата : Big
Режим смешивания : DVD-Video
Продолжительность : 20 м.
Вид битрейта : Постоянный
Битрейт : 192 Кбит/сек
Каналы : 2 канала
Расположение каналов : Front: L R
Частота : 48,0 КГц
Частота кадров : 31,250 кадров/сек (1536 spf)
Метод сжатия : С потерями
Задержка видео : -506 мс.
Размер потока : 28,3 Мбайт (3%)
Аудио #3
Идентификатор : 189 (0xBD)-130 (0x82)
Формат : AC-3
Формат/Информация : Audio Coding 3
Расширение режима : CM (complete main)
Параметр Endianness формата : Big
Режим смешивания : DVD-Video
Продолжительность : 20 м.
Вид битрейта : Постоянный
Битрейт : 448 Кбит/сек
Каналы : 6 каналов
Расположение каналов : Front: L C R, Side: L R, LFE
Частота : 48,0 КГц
Частота кадров : 31,250 кадров/сек (1536 spf)
Метод сжатия : С потерями
Задержка видео : -570 мс.
Размер потока : 66,1 Мбайт (6%)
Текст #1
Идентификатор : 189 (0xBD)-32 (0x20)
Формат : RLE
Формат/Информация : Run-length encoding
Режим смешивания : DVD-Video
Продолжительность : 20 м.
Задержка видео : 6 с. 757 мс.
Текст #2
Идентификатор : 189 (0xBD)-33 (0x21)
Формат : RLE
Формат/Информация : Run-length encoding
Режим смешивания : DVD-Video
Продолжительность : 20 м.
Задержка видео : 8 с. 259 мс.
Текст #3
Идентификатор : 224 (0xE0)-CC3
Формат : EIA-608
Режим смешивания, доп. информация : Muxed in Video #1
Продолжительность : 20 м.
Вид битрейта : Постоянный
Размер потока : 0,00 байт (0%)
Меню
Продолжительность : 20 м.
Исходником послужил лицензионный DVD9 из-за рубежа. Французскую звуковую дорожку заменил на русскую вместе с субтитрами. Испанскую дорогу удалил.
Предупреждающие надписи скрыл.
Использовались программы: MKVExtractGUI2, UsEac3to, Sony Vegas, PgcDemux, DVD ReMake Pro, Adobe PhotoShop, MuxMan, MaestroSBT, SubtitleEdit, DVDSubEdit.


Скриншоты:

   Похожие торренты   Торрент   Размер 
В этой теме нет новых непрочитанных сообщений. Стражи Галактики. Часть 2 / Guardians of the Galaxy Vol. 2 (2017) TC | D

38 | 12

1.37 ГБ

В этой теме нет новых непрочитанных сообщений. Стражи Галактики. Часть 2 / Guardians of the Galaxy Vol. (2017) TC 720p | L

10381 | 374

4.13 ГБ

В этой теме нет новых непрочитанных сообщений. Стражи Галактики. Часть 2 / Guardians of the Galaxy Vol. 2 (2017) DVD5

19 | 9

4.37 ГБ

В этой теме нет новых непрочитанных сообщений. Стражи Галактики. Часть 2 / Guardians of the Galaxy Vol. 2 (2017) CAMRip | L

262 | 17

699.17 МБ

В этой теме нет новых непрочитанных сообщений. Стражи Галактики. Часть 2 / Guardians of the Galaxy Vol. 2 (2017) DVD5

29 | 6

4.38 ГБ

В этой теме нет новых непрочитанных сообщений. Стражи Галактики. Часть 2 / Guardians of the Galaxy Vol. 2 (2017) CAMRip | D

21 | 10

699.35 МБ

В этой теме нет новых непрочитанных сообщений. Стражи Галактики. Часть 2 / Guardians of the Galaxy Vol. (2017) TC 1080p | L

1613 | 35

4.65 ГБ




Вы не можете начинать темы
Вы не можете отвечать на сообщения
Вы не можете редактировать свои сообщения
Вы не можете удалять свои сообщения
Вы не можете добавлять вложения

Перейти:  
Контактная информация: rstracker[пёсик]yandex.ru
 Вход
ppkBB3cker v.2 © 2008-2014 @ PPK
[ Time : 0.019s | 17 Queries | GZIP : Off ]

cron