img image001 image001 image001 image001 image001 image001 image001 image001 image001 image001 image001 image001 image001 image001 image001

Planets Sun Sun Sun
Статистика раздачи
Автор: Nickolas3434 | Размер: 1.87 ГБ | Добавлен: 29 сен 2017
Раздают: 21    Качают: 3
Скачать торрент
Скачать торрент
Описание торрента

СообщениеДобавлено: 29 сен 2017 

Информация о фильме
Название: Голый пистолет: из архивов полиции!
Оригинальное название: The Naked Gun: From the Files of Police Squad!
Год выхода: 1988
Жанр: Комедия, боевик
Режиссер: Дэвид Цукер
В ролях: Лесли Нильсен, Присцилла Пресли, Рикардо Монтальбан, Джордж Кеннеди, О. Дж. Симпсон, Susan Beaubian, Нэнси Маршанд, Рэй Бирк, Жанетт Чарльз, Эд Уильямс
О фильме:
Самый некомпетентный полицейский, лейтенант Фрэнк Дреббин, должен в одиночку противостоять международному заговору, цель которого — погубить королеву Елизавету II. Ко всеобщему удивлению и радости, глупейший из глупых лейтенант Дреббин разберётся со всеми врагами Её Величества так лихо, как не снилось и знаменитому агенту 007.

Страна: США
Студия: Paramount Pictures
Продолжительность: 01:24:59
Перевод: Многоголосый закадровый [Видеобиз]
Файл
Кодек: H.264
Качество: BDRip-AVC от SuperMin
Видео: 1024x576 (16:9), 2695 kbps, 23.976 fps
Звук: Русский (AC-3, 6ch, 448 kbps)
Субтитры: Русские, английские
x264 [info]: frame I:1128 Avg QP:19.41 size: 93373
x264 [info]: frame P:27458 Avg QP:20.70 size: 34852
x264 [info]: frame B:93689 Avg QP:23.30 size: 6996
x264 [info]: consecutive B-frames: 1.9% 2.6% 14.8% 17.5% 16.3% 40.6% 4.7% 0.7% 0.8%
x264 [total]: encoded 122275 frames, 5.66 fps, 2694.64 kb/s
General
Unique ID : 192054952765738223986738686144672815192 (0x907C703E415E240688FDA0B79441D858)
Complete name : F:ФИЛЬМЫГОЛЫЙ ПИСТОЛЕТ---Голый.пистолет.Из.архивов.полиции!.1988.x264.BDRip-AVC.mkv
Format : Matroska
Format version : Version 4 / Version 2
File size : 1.87 GiB
Duration : 1 h 24 min
Overall bit rate : 3 145 kb/s
Movie name : Голый пистолет / The Naked Gun: From the Files of Police Squad! (1988) - #LORDKILL#
Encoded date : UTC 2017-09-27 17:02:39
Writing application : mkvmerge v9.5.0 ('Quiet Fire') 64bit
Writing library : libebml v1.3.4 + libmatroska v1.4.5
Video
ID : 1
Format : AVC
Format/Info : Advanced Video Codec
Format profile : High@L4.1
Format settings, CABAC : Yes
Format settings, ReFrames : 12 frames
Codec ID : V_MPEG4/ISO/AVC
Duration : 1 h 24 min
Bit rate : 2 695 kb/s
Width : 1 024 pixels
Height : 576 pixels
Display aspect ratio : 16:9
Frame rate mode : Constant
Frame rate : 23.976 (24000/1001) FPS
Color space : YUV
Chroma subsampling : 4:2:0
Bit depth : 8 bits
Scan type : Progressive
Bits/(Pixel*Frame) : 0.191
Stream size : 1.60 GiB (86%)
Writing library : x264 core 146 r2538 121396c
Encoding settings : cabac=1 / ref=12 / deblock=1:-3:-3 / analyse=0x3:0x113 / me=umh / subme=11 / psy=1 / psy_rd=1.00:0.10 / mixed_ref=1 / me_range=64 / chroma_me=1 / trellis=2 / 8x8dct=1 / cqm=0 / deadzone=21,11 / fast_pskip=0 / chroma_qp_offset=-3 / threads=12 / lookahead_threads=2 / sliced_threads=0 / nr=0 / decimate=1 / interlaced=0 / bluray_compat=0 / constrained_intra=0 / bframes=8 / b_pyramid=2 / b_adapt=2 / b_bias=0 / direct=1 / weightb=1 / open_gop=0 / weightp=2 / keyint=240 / keyint_min=23 / scenecut=40 / intra_refresh=0 / rc=crf / mbtree=0 / crf=19.5 / qcomp=0.60 / qpmin=0 / qpmax=69 / qpstep=4 / ip_ratio=1.40 / pb_ratio=1.30 / aq=1:1.00
Default : Yes
Forced : No
Audio
ID : 2
Format : AC-3
Format/Info : Audio Coding 3
Mode extension : CM (complete main)
Format settings, Endianness : Big
Codec ID : A_AC3
Duration : 1 h 24 min
Bit rate mode : Constant
Bit rate : 448 kb/s
Channel(s) : 6 channels
Channel positions : Front: L C R, Side: L R, LFE
Sampling rate : 48.0 kHz
Frame rate : 31.250 FPS (1536 spf)
Bit depth : 16 bits
Compression mode : Lossy
Stream size : 272 MiB (14%)
Title : Профессиональный (многоголосый закадровый) Видеобиз
Language : Russian
Default : Yes
Forced : No
Text #1
ID : 3
Format : UTF-8
Codec ID : S_TEXT/UTF8
Codec ID/Info : UTF-8 Plain Text
Duration : 1 h 21 min
Bit rate : 120 b/s
Count of elements : 800
Stream size : 72.2 KiB (0%)
Language : Russian
Default : Yes
Forced : No
Text #2
ID : 4
Format : UTF-8
Codec ID : S_TEXT/UTF8
Codec ID/Info : UTF-8 Plain Text
Duration : 1 h 20 min
Bit rate : 63 b/s
Count of elements : 960
Stream size : 37.7 KiB (0%)
Language : English
Default : No
Forced : No

   Похожие торренты   Торрент   Размер 
В этой теме нет новых непрочитанных сообщений. Голый пистолет / The Naked Gun: From the Files of Police Squad! (1988) BDRip 720p от k.e.n & MegaPeer | P, P2, A

30 | 3

7.75 ГБ

В этой теме нет новых непрочитанных сообщений. Голый пистолет / The Naked Gun: From the Files of Police Squad! (Дэвид Цукер) [1988, комедия, криминал, BDRip] MVO

193 | 20

1.45 ГБ

В этой теме нет новых непрочитанных сообщений. Голый пистолет / The Naked Gun: From the Files of Police Squad! (1988) BDRemux 1080p | P, A

1 | 7

37.64 ГБ

В этой теме нет новых непрочитанных сообщений. Голый пистолет 2 1/2: Запах страха / The Naked Gun 2 1/2: The Smell of Fear (1991) BDRip-AVC от SuperMin | P

11 | 0

1.83 ГБ

В этой теме нет новых непрочитанных сообщений. Голый пистолет: Трилогия / The Naked Gun: Trilogy (1988-1994) HDRip-AVC | НТВ+

74 | 8

2.19 ГБ

В этой теме нет новых непрочитанных сообщений. Голый пистолет 33 1/3: Последний выпад / Naked Gun 33 1/3: The Final Insult (Питер Сигал) [1994, комедия, криминал, BDRip] DVO

315 | 31

1.45 ГБ

В этой теме нет новых непрочитанных сообщений. Голый пистолет 2 1/2: Запах страха / The Naked Gun 2 1/2: The Smell of Fear (Дэвид Цукер) [1991, комедия, криминал, BDRip] DVO

211 | 24

1.45 ГБ




Вы не можете начинать темы
Вы не можете отвечать на сообщения
Вы не можете редактировать свои сообщения
Вы не можете удалять свои сообщения
Вы не можете добавлять вложения

Перейти:  
cron
 Вход
ppkBB3cker v.2 © 2008-2014 @ PPK
[ Time : 0.046s | 16 Queries | GZIP : Off ]

cron