img image001 image001 image001 image001 image001 image001 image001 image001 image001 image001 image001 image001 image001 image001 image001

Planets Sun Sun Sun

COVID-19 - Последняя информация о коронавирусе на сайте Минздрава | СИДИТЕ ДОМА!


Статистика раздачи
Автор: Nickolas3434 | Размер: 1.91 ГБ | Добавлен: 29 сен 2017
Раздают: 11    Качают: 3
Скачать торрент
Скачать торрент
Описание торрента

СообщениеДобавлено: 29 сен 2017 

Моя кузина Рэйчел / My Cousin Rachel


Год выпуска: 2017
Страна: Великобритания, США
Производство: Fox Searchlight Pictures, Free Range Films
Жанр: Драма, мелодрама, детектив
Режиссёр: Роджер Мишелл
В ролях: Сэм Клафлин, Рэйчел Вайз, Иэн Глен, Холлидей Грейнджер, Поппи Ли Фрайер, Эндрю Нотт, Вики Пеппердин, Пьерфранческо Фавино, Эндрю Хавилл, Кэтерин Пирс
Перевод: Профессиональный многоголосый | Лицензия
Субтитры: Русские, английские
Реклама: Отсутствует
Описание: Филип очень привязан к своему приемному отцу Эмброузу. Однако во время поездки по Италии Эмброуз знакомится с Рэйчел, своей дальней родственницей, женится на ней и вскоре умирает. Филип уверен, что коварная красотка Рэйчел убила его опекуна, чтобы заполучить состояние супруга. Оттачивая план мести, он не замечает, как сам влюбляется в Рэйчел.

Качество: BDRip-AVC
Продолжительность: 01:46:09
Формат: MKV
Видео кодек: MPEG-4 AVC
Аудио кодек: AC3
Видео: 1024x428 (16:9), 23.976 fps, x264 ~1687 kbps avg, 0.161 bit/pixel
Аудио #1: 48 kHz, AC3 Dolby Digital, 3/2 (L,C,R,l,r) + LFE ch, ~448.00 kbps avg | RUS (Лицензия)
Аудио #2: 48 kHz, AC3 Dolby Digital, 3/2 (L,C,R,l,r) + LFE ch, ~448.00 kbps avg | ENG
Дата премьеры (мир): 8 июня 2017
Дата премьеры (РФ): 8 июня 2017, «Каро-Премьер»

Релиз от: Rip by:
Общее
Уникальный идентификатор : 179234385838976263588804719328802559391 (0x86D7497DC13218468AE868D6F93AD59F)
Полное имя : E:OlLanDGroupMy.Cousin.Rachel.2017.BDRip(AVC).OlLanDGroup.mkv
Формат : Matroska
Версия формата : Version 2
Размер файла : 1,91 Гбайт
Продолжительность : 1 ч. 46 м.
Общий поток : 2581 Кбит/сек
Название фильма : My.Cousin.Rachel.2017 - TorpedoUK
Дата кодирования : UTC 2017-09-28 14:47:58
Программа кодирования : mkvmerge v7.8.0 ('River Man') 32bit built on Apr 3 2015 12:11:22
Библиотека кодирования : libebml v1.3.1 + libmatroska v1.4.2
Видео
Идентификатор : 1
Формат : AVC
Формат/Информация : Advanced Video Codec
Профиль формата : High@L4.1
Параметр CABAC формата : Да
Параметр ReFrames формата : 10 кадров
Идентификатор кодека : V_MPEG4/ISO/AVC
Продолжительность : 1 ч. 46 м.
Битрейт : 1687 Кбит/сек
Ширина : 1024 пикселя
Высота : 428 пикселей
Соотношение сторон : 2,40:1
Режим частоты кадров : Постоянный
Частота кадров : 23,976 (24000/1001) кадра/сек
Цветовое пространство : YUV
Субдискретизация насыщенности : 4:2:0
Битовая глубина : 8 бит
Тип развёртки : Прогрессивная
Бит/(Пиксели*Кадры) : 0.161
Размер потока : 1,21 Гбайт (63%)
Библиотека кодирования : x264 core 146 r2538 121396c
Настройки программы : cabac=1 / ref=10 / deblock=1:-3:-3 / analyse=0x3:0x133 / me=umh / subme=11 / psy=1 / psy_rd=1.00:0.07 / mixed_ref=1 / me_range=48 / chroma_me=1 / trellis=2 / 8x8dct=1 / cqm=0 / deadzone=21,11 / fast_pskip=0 / chroma_qp_offset=-3 / threads=6 / lookahead_threads=1 / sliced_threads=0 / nr=0 / decimate=0 / interlaced=0 / bluray_compat=0 / constrained_intra=0 / bframes=10 / b_pyramid=2 / b_adapt=2 / b_bias=0 / direct=3 / weightb=1 / open_gop=0 / weightp=2 / keyint=240 / keyint_min=23 / scenecut=40 / intra_refresh=0 / rc_lookahead=40 / rc=2pass / mbtree=0 / bitrate=1687 / ratetol=1.0 / qcomp=0.60 / qpmin=0 / qpmax=69 / qpstep=4 / cplxblur=20.0 / qblur=0.5 / vbv_maxrate=50000 / vbv_bufsize=62500 / nal_hrd=none / filler=0 / ip_ratio=1.40 / pb_ratio=1.30 / aq=1:1.00
Язык : English
Default : Да
Forced : Нет
Аудио #1
Идентификатор : 2
Формат : AC-3
Формат/Информация : Audio Coding 3
Расширение режима : CM (complete main)
Параметр Endianness формата : Big
Идентификатор кодека : A_AC3
Продолжительность : 1 ч. 46 м.
Вид битрейта : Постоянный
Битрейт : 448 Кбит/сек
Каналы : 6 каналов
Расположение каналов : Front: L C R, Side: L R, LFE
Частота : 48,0 КГц
Частота кадров : 31,250 кадров/сек (1536 spf)
Битовая глубина : 16 бит
Метод сжатия : С потерями
Размер потока : 340 Мбайт (17%)
Заголовок : License
Язык : Russian
Default : Да
Forced : Нет
Аудио #2
Идентификатор : 3
Формат : AC-3
Формат/Информация : Audio Coding 3
Расширение режима : CM (complete main)
Параметр Endianness формата : Big
Идентификатор кодека : A_AC3
Продолжительность : 1 ч. 46 м.
Вид битрейта : Постоянный
Битрейт : 448 Кбит/сек
Каналы : 6 каналов
Расположение каналов : Front: L C R, Side: L R, LFE
Частота : 48,0 КГц
Частота кадров : 31,250 кадров/сек (1536 spf)
Битовая глубина : 16 бит
Метод сжатия : С потерями
Размер потока : 340 Мбайт (17%)
Заголовок : Original
Язык : English
Default : Нет
Forced : Нет
Текст #1
Идентификатор : 4
Формат : UTF-8
Идентификатор кодека : S_TEXT/UTF8
Идентификатор кодека/Информация : UTF-8 Plain Text
Заголовок : Full
Язык : Russian
Default : Нет
Forced : Нет
Текст #2
Идентификатор : 5
Формат : UTF-8
Идентификатор кодека : S_TEXT/UTF8
Идентификатор кодека/Информация : UTF-8 Plain Text
Заголовок : Full
Язык : English
Default : Нет
Forced : Нет
Меню
00:00:00.000 : en:00:00:00.000
00:02:58.678 : en:00:02:58.678
00:07:00.378 : en:00:07:00.378
00:10:28.586 : en:00:10:28.586
00:15:20.419 : en:00:15:20.419
00:19:11.692 : en:00:19:11.692
00:23:50.971 : en:00:23:50.971
00:31:10.035 : en:00:31:10.035
00:33:23.168 : en:00:33:23.168
00:38:23.801 : en:00:38:23.801
00:41:37.578 : en:00:41:37.578
00:45:18.424 : en:00:45:18.424
00:52:34.151 : en:00:52:34.151
00:56:19.793 : en:00:56:19.793
00:59:30.275 : en:00:59:30.275
01:03:29.139 : en:01:03:29.139
01:10:56.335 : en:01:10:56.335
01:17:54.962 : en:01:17:54.962
01:21:38.519 : en:01:21:38.519
01:26:31.686 : en:01:26:31.686
01:28:48.156 : en:01:28:48.156
01:33:51.292 : en:01:33:51.292
01:39:14.115 : en:01:39:14.115
01:41:29.417 : en:01:41:29.417





   Похожие торренты   Торрент   Размер 
В этой теме нет новых непрочитанных сообщений. Моя кузина Рэйчел / My Cousin Rachel (2017) BDRip от HQCLUB | P | Лицензия

26 | 4

2.18 ГБ

В этой теме нет новых непрочитанных сообщений. Моя кузина Рэйчел / My Cousin Rachel (2017) BDRip от MegaPeer | Лицензия

498 | 10

1.46 ГБ

В этой теме нет новых непрочитанных сообщений. Моя кузина Рэйчел / My Cousin Rachel (2017) BDRip 720p | Лицензия

228 | 33

5.99 ГБ

В этой теме нет новых непрочитанных сообщений. Моя кузина Рэйчел / My Cousin Rachel (2017) BDRip-AVC от New-Team | Лицензия

24 | 3

746 МБ

В этой теме нет новых непрочитанных сообщений. Моя кузина Рэйчел / My Cousin Rachel (2017) BDRip от ExKinoRay | Лицензия

411 | 17

1.46 ГБ

В этой теме нет новых непрочитанных сообщений. Моя кузина Рэйчел / My Cousin Rachel (2017) BDRip от MegaPeer | Лицензия

52 | 8

746.73 МБ

В этой теме нет новых непрочитанных сообщений. Моя кузина Рэйчел / My Cousin Rachel (2017) BDRip-AVC от New-Team | Лицензия

46 | 9

1.47 ГБ




Вы не можете начинать темы
Вы не можете отвечать на сообщения
Вы не можете редактировать свои сообщения
Вы не можете удалять свои сообщения
Вы не можете добавлять вложения

Перейти:  
 Вход
ppkBB3cker v.2 © 2008-2014 @ PPK
[ Time : 0.025s | 16 Queries | GZIP : Off ]

cron