img image001 image001 image001 image001 image001 image001 image001 image001 image001 image001 image001 image001 image001 image001 image001

Planets Sun Sun Sun
Статистика раздачи
Автор: Nickolas3434 | Размер: 37.28 ГБ | Добавлен: 01 окт 2017
Раздают: 114    Качают: 23
Скачать торрент
Скачать торрент
Описание торрента

СообщениеДобавлено: 01 окт 2017 

Жанр: фэнтези, боевик, комедия, приключения
Год выхода: 2003 / 2006 / 2007 / 2011 / 2017
Продолжительность: 02:23:15 | 02:30:41 | 02:48:31 | 02:16:23 | 02:09:07
Режиссёр: Гор Вербински, Роб Маршалл, Хоаким Роннинг, Эспен Сандберг

Информация о фильме
Название: Пираты Карибского моря: Проклятие Черной жемчужины
Оригинальное название: Pirates of the Caribbean: The Curse of the Black Pearl
Год выхода: 2003
Жанр: Фэнтези, боевик, комедия, приключения
Режиссер: Гор Вербински
В ролях: Джонни Депп, Джеффри Раш, Орландо Блум, Кира Найтли, Джек Девенпорт, Джонатан Прайс, Ли Аренберг, Маккензи Крук, Дэмиан О’Хейр, Джиллз Нью
О фильме:
Жизнь харизматичного авантюриста, капитана Джека Воробья, полная увлекательных приключений, резко меняется, когда его заклятый враг - капитан Барбосса - похищает корабль Джека, Черную Жемчужину, а затем нападает на Порт Ройал и крадет прекрасную дочь губернатора, Элизабет Свонн. Друг детства Элизабет, Уилл Тернер, вместе с Джеком возглавляет спасательную экспедицию на самом быстром корабле Британии, в попытке вызволить девушку из плена и заодно отобрать у злодея Черную Жемчужину. Вслед за этой парочкой отправляется амбициозный коммодор Норрингтон, который к тому же числится женихом Элизабет. Однако Уилл не знает, что над Барбоссой висит вечное проклятие, при лунном свете превращающее его с командой в живых скелетов. Проклятье будет снято лишь тогда, когда украденное золото Ацтеков будет возвращено пиратами на старое место.

Страна: США
Продолжительность: 02:23:15
Перевод: Профессиональный дублированный
Файл
Кодек: HEVC x265 10 bit
Качество: BDRip-HEVC 1080p
Видео: 1916x800 (2,40:1), 6016 Кбит/сек, 0.164 бит/(Пиксели*Кадры), 23,976 кадр/сек (24000/1001), HEVC (Main10@L.5.1@High) 10 бит
Звук:
Русская, AC3, 640 kb/s, Front: L C R, Side: L R, LFE, 48.0 kHz (Дубляж Blu-ray)
Английская, AC3, 448 kb/s, Front: L C R, Side: L R, LFE, 48.0 kHz (Оригинал)
Субтитры: Русские (полные, форсированные), английские
Разделение по главам: есть
Семпл
General
Unique ID : 226959603147393996353501798048183842192 (0xAABED45FCC9D6F08BE2FDB5AA35F7590)
Complete name : I:HEVC 210 BITPirates of the Caribbean1 Pirates of the Caribbean_The Curse of the Black Pearl_2003_BDRip_1080p_[HEVC]_10bit.mkv
Format : Matroska
Format version : Version 4 / Version 2
File size : 7.11 GiB
Duration : 2 h 23 min
Overall bit rate : 7 107 kb/s
Encoded date : UTC 2017-09-22 18:22:04
Writing application : mkvmerge v9.9.0 ('Pick Up') 64bit
Writing library : libebml v1.3.4 + libmatroska v1.4.5
Cover : Yes
Attachments : cover.png
Video
ID : 1
Format : HEVC
Format/Info : High Efficiency Video Coding
Format profile : Main 10@L5.1@High
Codec ID : V_MPEGH/ISO/HEVC
Duration : 2 h 23 min
Bit rate : 6 016 kb/s
Width : 1 916 pixels
Height : 800 pixels
Display aspect ratio : 2.40:1
Frame rate mode : Constant
Frame rate : 23.976 (24000/1001) FPS
Color space : YUV
Chroma subsampling : 4:2:0
Bit depth : 10 bits
Bits/(Pixel*Frame) : 0.164
Stream size : 6.02 GiB (85%)
Writing library : x265 2.5+6-d11482e5fedb:[Windows][GCC 7.1.0][64 bit] 10bit
Encoding settings : cpuid=1173503 / frame-threads=4 / numa-pools=16 / wpp / no-pmode / no-pme / no-psnr / no-ssim / log-level=2 / input-csp=1 / input-res=1916x800 / interlace=0 / total-frames=0 / level-idc=51 / high-tier=1 / uhd-bd=0 / ref=4 / no-allow-non-conformance / no-repeat-headers / annexb / no-aud / no-hrd / info / hash=0 / no-temporal-layers / open-gop / min-keyint=23 / keyint=240 / bframes=8 / b-adapt=2 / b-pyramid / bframe-bias=0 / rc-lookahead=40 / lookahead-slices=4 / scenecut=40 / no-intra-refresh / ctu=64 / min-cu-size=8 / rect / no-amp / max-tu-size=32 / tu-inter-depth=2 / tu-intra-depth=2 / limit-tu=0 / rdoq-level=1 / dynamic-rd=0.00 / no-ssim-rd / signhide / no-tskip / nr-intra=0 / nr-inter=0 / no-constrained-intra / no-strong-intra-smoothing / max-merge=3 / limit-refs=3 / limit-modes / me=3 / subme=3 / merange=32 / temporal-mvp / weightp / weightb / no-analyze-src-pics / deblock=-3:-3 / no-sao / no-sao-non-deblock / rd=5 / no-early-skip / rskip / no-fast-intra / no-tskip-fast / no-cu-lossless / no-b-intra / rdpenalty=0 / psy-rd=2.00 / psy-rdoq=3.00 / no-rd-refine / analysis-reuse-mode=0 / no-lossless / cbqpoffs=0 / crqpoffs=0 / rc=crf / crf=20.0 / qcomp=0.60 / qpstep=4 / stats-write=0 / stats-read=0 / vbv-maxrate=160000 / vbv-bufsize=160000 / vbv-init=0.9 / crf-max=0.0 / crf-min=0.0 / ipratio=1.50 / pbratio=1.40 / aq-mode=1 / aq-strength=0.80 / cutree / zone-count=1 / zones: / start-frame=191560 / end-frame=206071 / qp=35 / no-strict-cbr / qg-size=32 / no-rc-grain / qpmax=69 / qpmin=0 / no-const-vbv / sar=0 / overscan=0 / videoformat=5 / range=0 / colorprim=2 / transfer=2 / colormatrix=1 / chromaloc=0 / display-window=0 / max-cll=0,0 / min-luma=0 / max-luma=1023 / log2-max-poc-lsb=8 / vui-timing-info / vui-hrd-info / slices=1 / opt-qp-pps / opt-ref-list-length-pps / no-multi-pass-opt-rps / scenecut-bias=0.05 / no-opt-cu-delta-qp / aq-motion / no-hdr / no-hdr-opt / no-dhdr10-opt / analysis-reuse-level=5 / scale-factor=0 / refine-intra=0 / refine-inter=0 / refine-mv=0 / no-limit-sao / ctu-info=0
Default : Yes
Forced : Yes
Color range : Limited
Matrix coefficients : BT.709
Audio #1
ID : 2
Format : AC-3
Format/Info : Audio Coding 3
Format settings, Endianness : Big
Codec ID : A_AC3
Duration : 2 h 23 min
Bit rate mode : Constant
Bit rate : 640 kb/s
Channel(s) : 6 channels
Channel positions : Front: L C R, Side: L R, LFE
Sampling rate : 48.0 kHz
Frame rate : 31.250 FPS (1536 spf)
Bit depth : 16 bits
Compression mode : Lossy
Stream size : 656 MiB (9%)
Title : Russian, AC3, 6 ch, 640 kb/s
Language : Russian
Service kind : Complete Main
Default : Yes
Forced : No
Audio #2
ID : 3
Format : AC-3
Format/Info : Audio Coding 3
Format settings, Endianness : Big
Codec ID : A_AC3
Duration : 2 h 23 min
Bit rate mode : Constant
Bit rate : 448 kb/s
Channel(s) : 6 channels
Channel positions : Front: L C R, Side: L R, LFE
Sampling rate : 48.0 kHz
Frame rate : 31.250 FPS (1536 spf)
Bit depth : 16 bits
Compression mode : Lossy
Stream size : 459 MiB (6%)
Title : English
Language : English
Service kind : Complete Main
Default : No
Forced : No
Text #1
ID : 4
Format : UTF-8
Codec ID : S_TEXT/UTF8
Codec ID/Info : UTF-8 Plain Text
Duration : 2 h 14 min
Bit rate : 0 b/s
Count of elements : 5
Stream size : 224 Bytes (0%)
Title : Forced
Language : Russian
Default : Yes
Forced : Yes
Text #2
ID : 5
Format : UTF-8
Codec ID : S_TEXT/UTF8
Codec ID/Info : UTF-8 Plain Text
Duration : 2 h 14 min
Bit rate : 71 b/s
Count of elements : 1396
Stream size : 70.8 KiB (0%)
Title : Full
Language : Russian
Default : No
Forced : No
Text #3
ID : 6
Format : UTF-8
Codec ID : S_TEXT/UTF8
Codec ID/Info : UTF-8 Plain Text
Duration : 2 h 12 min
Bit rate : 47 b/s
Count of elements : 1619
Stream size : 46.1 KiB (0%)
Title : Full
Language : English
Default : No
Forced : No
Menu
00:00:00.000 : :(01)00:00:00:000
00:08:51.278 : :(02)00:08:51:278
00:16:05.547 : :(03)00:16:05:547
00:27:16.343 : :(04)00:27:16:343
00:35:59.322 : :(05)00:35:59:322
00:41:02.960 : :(06)00:41:02:960
00:48:19.938 : :(07)00:48:19:938
00:54:01.277 : :(08)00:54:01:277
01:04:05.675 : :(09)01:04:05:675
01:15:56.801 : :(10)01:15:56:801
01:21:21.417 : :(11)01:21:21:417
01:35:00.152 : :(12)01:35:00:152
01:40:00.743 : :(13)01:40:00:743
01:48:15.613 : :(14)01:48:15:613
02:02:02.189 : :(15)02:02:02:189
02:13:09.648 : :(16)02:13:09:648
02:23:14.877 : :(17)02:23:14:877



Информация о фильме
Название: Пираты Карибского моря: Сундук мертвеца
Оригинальное название: Pirates of the Caribbean: Dead Man's Chest
Год выхода: 2006
Жанр: Фэнтези, боевик, комедия, приключения
Режиссер: Гор Вербински
В ролях: Джонни Депп, Орландо Блум, Кира Найтли,Билл Найи, Кевин МакНэлли, Джек Дэвенпорт, Стеллан Скарсгард, Маккензи Крук, Ли Аренберг, Мартин Клебба, Дэвид Бэилай, Дэмиан О’Хейр, Джиллз Нью, Наоми Харрис, Дэвид Скофилд
О фильме:
Снова ввязавшись в какую-то сверхъестественную историю, капитан Джек Воробей обнаруживает, что должен отдать свою жизнь легендарному Дэйви Джоунсу, капитану призрачного "Летучего Голландца". У Джека совсем немного времени, чтобы найти выход из сложившийся ситуации, иначе он будет проклят и обречён прислуживать своему господину вечно. Кроме того, будто проблем и так было мало, Джек Воробей со своими трудностями умудрился расстроить свадьбу Уилла и Элизабет, которым в итоге приходится присоединиться к Джеку и отправиться навстречу новым приключениям.

Страна: США
Продолжительность: 02:30:41
Перевод: Профессиональный дублированный
Файл
Кодек: HEVC x265 10 bit
Качество: BDRip-HEVC 1080p
Видео: 1920x802 (2,40:1), 5972 Кбит/сек, 0.162 бит/(Пиксели*Кадры), 23,976 кадр/сек (24000/1001), HEVC (Main10@L.5.1@High) 10 бит
Звук:
Русская, AC3, 640 kb/s, Front: L C R, Side: L R, LFE, 48.0 kHz (Дубляж Blu-ray)
Английская, AC3, 448 kb/s, Front: L C R, Side: L R, LFE, 48.0 kHz (Оригинал)
Субтитры: Русские (полные, форсированные), английские
Разделение по главам: есть
Семпл
General
Unique ID : 246163349006468452712590281532760669591 (0xB9315625458B4FABA965DBE2DA4C3D97)
Complete name : I:HEVC 210 BITPirates of the Caribbean2 Pirates of the Caribbean_Dead.Man's.Chest_2006_BDRip_1080p_[HEVC]_10bit.mkv
Format : Matroska
Format version : Version 4 / Version 2
File size : 7.43 GiB
Duration : 2 h 30 min
Overall bit rate : 7 063 kb/s
Encoded date : UTC 2017-09-25 15:53:38
Writing application : mkvmerge v9.9.0 ('Pick Up') 64bit
Writing library : libebml v1.3.4 + libmatroska v1.4.5
Cover : Yes
Attachments : cover.png
Video
ID : 1
Format : HEVC
Format/Info : High Efficiency Video Coding
Format profile : Main 10@L5.1@High
Codec ID : V_MPEGH/ISO/HEVC
Duration : 2 h 30 min
Bit rate : 5 972 kb/s
Width : 1 920 pixels
Height : 802 pixels
Display aspect ratio : 2.40:1
Frame rate mode : Constant
Frame rate : 23.976 (24000/1001) FPS
Color space : YUV
Chroma subsampling : 4:2:0
Bit depth : 10 bits
Bits/(Pixel*Frame) : 0.162
Stream size : 6.28 GiB (85%)
Writing library : x265 2.5+6-d11482e5fedb:[Windows][GCC 7.1.0][64 bit] 10bit
Encoding settings : cpuid=1173503 / frame-threads=4 / numa-pools=16 / wpp / no-pmode / no-pme / no-psnr / no-ssim / log-level=2 / input-csp=1 / input-res=1920x802 / interlace=0 / total-frames=0 / level-idc=51 / high-tier=1 / uhd-bd=0 / ref=5 / no-allow-non-conformance / no-repeat-headers / annexb / no-aud / no-hrd / info / hash=0 / no-temporal-layers / open-gop / min-keyint=23 / keyint=240 / bframes=8 / b-adapt=2 / no-b-pyramid / bframe-bias=0 / rc-lookahead=60 / lookahead-slices=4 / scenecut=40 / no-intra-refresh / ctu=64 / min-cu-size=8 / rect / no-amp / max-tu-size=32 / tu-inter-depth=3 / tu-intra-depth=3 / limit-tu=4 / rdoq-level=1 / dynamic-rd=0.00 / no-ssim-rd / signhide / no-tskip / nr-intra=0 / nr-inter=0 / no-constrained-intra / no-strong-intra-smoothing / max-merge=3 / limit-refs=3 / limit-modes / me=2 / subme=5 / merange=32 / temporal-mvp / weightp / weightb / no-analyze-src-pics / deblock=-1:-1 / no-sao / no-sao-non-deblock / rd=4 / no-early-skip / rskip / no-fast-intra / no-tskip-fast / no-cu-lossless / no-b-intra / rdpenalty=0 / psy-rd=2.00 / psy-rdoq=2.00 / no-rd-refine / analysis-reuse-mode=0 / no-lossless / cbqpoffs=0 / crqpoffs=0 / rc=crf / crf=20.0 / qcomp=0.60 / qpstep=4 / stats-write=0 / stats-read=0 / vbv-maxrate=160000 / vbv-bufsize=160000 / vbv-init=0.9 / crf-max=0.0 / crf-min=0.0 / ipratio=1.50 / pbratio=1.20 / aq-mode=1 / aq-strength=0.50 / cutree / zone-count=1 / zones: / start-frame=202951 / end-frame=216720 / qp=35 / no-strict-cbr / qg-size=32 / no-rc-grain / qpmax=69 / qpmin=0 / no-const-vbv / sar=0 / overscan=0 / videoformat=5 / range=0 / colorprim=2 / transfer=2 / colormatrix=1 / chromaloc=0 / display-window=0 / max-cll=0,0 / min-luma=0 / max-luma=1023 / log2-max-poc-lsb=8 / vui-timing-info / vui-hrd-info / slices=1 / opt-qp-pps / opt-ref-list-length-pps / no-multi-pass-opt-rps / scenecut-bias=0.05 / no-opt-cu-delta-qp / no-aq-motion / no-hdr / no-hdr-opt / no-dhdr10-opt / analysis-reuse-level=5 / scale-factor=0 / refine-intra=0 / refine-inter=0 / refine-mv=0 / no-limit-sao / ctu-info=0
Default : Yes
Forced : Yes
Color range : Limited
Matrix coefficients : BT.709
Audio #1
ID : 2
Format : AC-3
Format/Info : Audio Coding 3
Format settings, Endianness : Big
Codec ID : A_AC3
Duration : 2 h 30 min
Bit rate mode : Constant
Bit rate : 640 kb/s
Channel(s) : 6 channels
Channel positions : Front: L C R, Side: L R, LFE
Sampling rate : 48.0 kHz
Frame rate : 31.250 FPS (1536 spf)
Bit depth : 16 bits
Compression mode : Lossy
Stream size : 690 MiB (9%)
Title : Russian, AC3, 6 ch, 640 kb/s
Language : Russian
Service kind : Complete Main
Default : Yes
Forced : No
Audio #2
ID : 3
Format : AC-3
Format/Info : Audio Coding 3
Format settings, Endianness : Big
Codec ID : A_AC3
Duration : 2 h 30 min
Bit rate mode : Constant
Bit rate : 448 kb/s
Channel(s) : 6 channels
Channel positions : Front: L C R, Side: L R, LFE
Sampling rate : 48.0 kHz
Frame rate : 31.250 FPS (1536 spf)
Bit depth : 16 bits
Compression mode : Lossy
Stream size : 483 MiB (6%)
Title : English
Language : English
Service kind : Complete Main
Default : No
Forced : No
Text #1
ID : 4
Format : UTF-8
Codec ID : S_TEXT/UTF8
Codec ID/Info : UTF-8 Plain Text
Duration : 2 h 21 min
Bit rate : 0 b/s
Count of elements : 6
Stream size : 212 Bytes (0%)
Title : Forced
Language : Russian
Default : Yes
Forced : Yes
Text #2
ID : 5
Format : UTF-8
Codec ID : S_TEXT/UTF8
Codec ID/Info : UTF-8 Plain Text
Duration : 2 h 21 min
Bit rate : 65 b/s
Count of elements : 1296
Stream size : 68.0 KiB (0%)
Title : Full
Language : Russian
Default : No
Forced : No
Text #3
ID : 6
Format : UTF-8
Codec ID : S_TEXT/UTF8
Codec ID/Info : UTF-8 Plain Text
Duration : 2 h 18 min
Bit rate : 40 b/s
Count of elements : 1227
Stream size : 40.8 KiB (0%)
Title : Full
Language : English
Default : No
Forced : No
Menu
00:00:00.000 : :(01)00:00:00:000
00:04:18.925 : :(02)00:04:18:925
00:09:53.009 : :(03)00:09:53:009
00:12:13.441 : :(04)00:12:13:441
00:19:09.064 : :(05)00:19:09:064
00:23:53.471 : :(06)00:23:53:471
00:30:15.480 : :(07)00:30:15:480
00:35:29.418 : :(08)00:35:29:418
00:40:32.929 : :(09)00:40:32:929
00:46:28.034 : :(10)00:46:28:034
00:50:25.563 : :(11)00:50:25:563
00:56:18.625 : :(12)00:56:18:625
00:59:52.380 : :(13)00:59:52:380
01:05:45.190 : :(14)01:05:45:190
01:11:55.853 : :(15)01:11:55:853
01:17:04.327 : :(16)01:17:04:327
01:22:10.256 : :(17)01:22:10:256
01:30:36.639 : :(18)01:30:36:639
01:34:38.171 : :(19)01:34:38:171
01:39:21.828 : :(20)01:39:21:828
01:44:52.408 : :(21)01:44:52:408
01:49:14.712 : :(22)01:49:14:712
01:54:55.805 : :(23)01:54:55:805
01:59:36.042 : :(24)01:59:36:042
02:04:59.908 : :(25)02:04:59:908
02:10:27.194 : :(26)02:10:27:194
02:16:20.630 : :(27)02:16:20:630
02:21:04.789 : :(28)02:21:04:789
02:30:39.030 : :(29)02:30:39:030



Информация о фильме
Название: Пираты Карибского моря: На краю Света
Оригинальное название: Pirates of the Caribbean: At World's End
Год выхода: 2007
Жанр: Фэнтези, боевик, комедия, приключения
Режиссер: Гор Вербински
В ролях: Джонни Депп, Орландо Блум, Кира Найтли, Джеффри Раш Билл, Найи, Кевин МакНэлли, Джек Дэвенпорт, Стеллан Скарсгард, Чоу Юнь-Фат, Кит Ричардс, Маккензи Крук, Ли Аренберг, Мартин Клебба, Дэвид Бэилай, Дэмиан О’Хейр, Джиллз Нью, Наоми Харрис, Дэвид Скофилд
О фильме:
Новые приключения Джека Воробья и его друзей Уилла Тёрнера и Элизабет Суонн. На этот раз Уиллу и Элизабет придётся объединиться с самим Капитаном Барбоссой для того, чтобы отправиться на край света и спасти своего друга - Джека. Ситуация осложняется тем, что Элизабет попадает к сингапурским пиратам…

Страна: США
Продолжительность: 02:48:30
Перевод: Профессиональный дублированный
Файл
Кодек: HEVC x265 10 bit
Качество: BDRip-HEVC 1080p
Видео: 1920x800 (2,40:1), 6461 Кбит/сек, 0.175 бит/(Пиксели*Кадры), 23,976 кадр/сек (24000/1001), HEVC (Main10@L.5.1@High) 10 бит
Звук:
Русская, AC3, 640 kb/s, Front: L C R, Side: L R, LFE, 48.0 kHz (Дубляж Blu-ray)
Английская, AC3, 448 kb/s, Front: L C R, Side: L R, LFE, 48.0 kHz (Оригинал)
Субтитры: Русские (полные, форсированные), английские
Разделение по главам: есть
Семпл
General
Unique ID : 229945182940273895646669519453900527322 (0xACFDD4D2A5C9C5338F1513532CAC56DA)
Complete name : I:HEVC 210 BITPirates of the Caribbean3 Pirates of the Caribbean_At World's End_2007_BDRip_1080p_[HEVC]_10bit.mkv
Format : Matroska
Format version : Version 4 / Version 2
File size : 8.89 GiB
Duration : 2 h 48 min
Overall bit rate : 7 552 kb/s
Encoded date : UTC 2017-09-26 15:52:38
Writing application : mkvmerge v9.9.0 ('Pick Up') 64bit
Writing library : libebml v1.3.4 + libmatroska v1.4.5
Cover : Yes
Attachments : cover.png
Video
ID : 1
Format : HEVC
Format/Info : High Efficiency Video Coding
Format profile : Main 10@L5.1@High
Codec ID : V_MPEGH/ISO/HEVC
Duration : 2 h 48 min
Bit rate : 6 461 kb/s
Width : 1 920 pixels
Height : 800 pixels
Display aspect ratio : 2.40:1
Frame rate mode : Constant
Frame rate : 23.976 (24000/1001) FPS
Color space : YUV
Chroma subsampling : 4:2:0
Bit depth : 10 bits
Bits/(Pixel*Frame) : 0.175
Stream size : 7.60 GiB (86%)
Writing library : x265 2.5+6-d11482e5fedb:[Windows][GCC 7.1.0][64 bit] 10bit
Encoding settings : cpuid=1173503 / frame-threads=4 / numa-pools=16 / wpp / no-pmode / no-pme / no-psnr / no-ssim / log-level=2 / input-csp=1 / input-res=1920x800 / interlace=0 / total-frames=0 / level-idc=51 / high-tier=1 / uhd-bd=0 / ref=5 / no-allow-non-conformance / no-repeat-headers / annexb / no-aud / no-hrd / info / hash=0 / no-temporal-layers / open-gop / min-keyint=23 / keyint=240 / bframes=8 / b-adapt=2 / no-b-pyramid / bframe-bias=0 / rc-lookahead=60 / lookahead-slices=4 / scenecut=40 / no-intra-refresh / ctu=64 / min-cu-size=8 / rect / no-amp / max-tu-size=32 / tu-inter-depth=3 / tu-intra-depth=3 / limit-tu=4 / rdoq-level=1 / dynamic-rd=0.00 / no-ssim-rd / signhide / no-tskip / nr-intra=0 / nr-inter=0 / no-constrained-intra / no-strong-intra-smoothing / max-merge=3 / limit-refs=3 / limit-modes / me=2 / subme=5 / merange=32 / temporal-mvp / weightp / weightb / no-analyze-src-pics / deblock=-1:-1 / no-sao / no-sao-non-deblock / rd=4 / no-early-skip / rskip / no-fast-intra / no-tskip-fast / no-cu-lossless / no-b-intra / rdpenalty=0 / psy-rd=2.00 / psy-rdoq=2.00 / no-rd-refine / analysis-reuse-mode=0 / no-lossless / cbqpoffs=0 / crqpoffs=0 / rc=crf / crf=20.0 / qcomp=0.60 / qpstep=4 / stats-write=0 / stats-read=0 / vbv-maxrate=160000 / vbv-bufsize=160000 / vbv-init=0.9 / crf-max=0.0 / crf-min=0.0 / ipratio=1.50 / pbratio=1.20 / aq-mode=1 / aq-strength=0.50 / cutree / zone-count=1 / zones: / start-frame=228458 / end-frame=242401 / qp=35 / no-strict-cbr / qg-size=32 / no-rc-grain / qpmax=69 / qpmin=0 / no-const-vbv / sar=0 / overscan=0 / videoformat=5 / range=0 / colorprim=2 / transfer=2 / colormatrix=1 / chromaloc=0 / display-window=0 / max-cll=0,0 / min-luma=0 / max-luma=1023 / log2-max-poc-lsb=8 / vui-timing-info / vui-hrd-info / slices=1 / opt-qp-pps / opt-ref-list-length-pps / no-multi-pass-opt-rps / scenecut-bias=0.05 / no-opt-cu-delta-qp / no-aq-motion / no-hdr / no-hdr-opt / no-dhdr10-opt / analysis-reuse-level=5 / scale-factor=0 / refine-intra=0 / refine-inter=0 / refine-mv=0 / no-limit-sao / ctu-info=0
Default : Yes
Forced : Yes
Color range : Limited
Matrix coefficients : BT.709
Audio #1
ID : 2
Format : AC-3
Format/Info : Audio Coding 3
Format settings, Endianness : Big
Codec ID : A_AC3
Duration : 2 h 48 min
Bit rate mode : Constant
Bit rate : 640 kb/s
Channel(s) : 6 channels
Channel positions : Front: L C R, Side: L R, LFE
Sampling rate : 48.0 kHz
Frame rate : 31.250 FPS (1536 spf)
Bit depth : 16 bits
Compression mode : Lossy
Stream size : 771 MiB (8%)
Title : Russian, AC3, 6 ch, 640 kb/s
Language : Russian
Service kind : Complete Main
Default : Yes
Forced : No
Audio #2
ID : 3
Format : AC-3
Format/Info : Audio Coding 3
Format settings, Endianness : Big
Codec ID : A_AC3
Duration : 2 h 48 min
Bit rate mode : Constant
Bit rate : 448 kb/s
Channel(s) : 6 channels
Channel positions : Front: L C R, Side: L R, LFE
Sampling rate : 48.0 kHz
Frame rate : 31.250 FPS (1536 spf)
Bit depth : 16 bits
Compression mode : Lossy
Stream size : 540 MiB (6%)
Title : English
Language : English
Service kind : Complete Main
Default : No
Forced : No
Text #1
ID : 4
Format : UTF-8
Codec ID : S_TEXT/UTF8
Codec ID/Info : UTF-8 Plain Text
Duration : 2 h 46 min
Bit rate : 0 b/s
Count of elements : 10
Stream size : 355 Bytes (0%)
Title : Forced
Language : Russian
Default : Yes
Forced : Yes
Text #2
ID : 5
Format : UTF-8
Codec ID : S_TEXT/UTF8
Codec ID/Info : UTF-8 Plain Text
Duration : 2 h 46 min
Bit rate : 63 b/s
Count of elements : 1518
Stream size : 77.0 KiB (0%)
Title : Full
Language : Russian
Default : No
Forced : No
Text #3
ID : 6
Format : UTF-8
Codec ID : S_TEXT/UTF8
Codec ID/Info : UTF-8 Plain Text
Duration : 2 h 46 min
Bit rate : 39 b/s
Count of elements : 1516
Stream size : 48.0 KiB (0%)
Title : Full
Language : English
Default : No
Forced : No
Menu
00:00:00.000 : :(01)00:00:00:000
00:04:33.939 : :(02)00:04:33:939
00:10:01.808 : :(03)00:10:01:808
00:19:58.279 : :(04)00:19:58:279
00:26:07.481 : :(05)00:26:07:481
00:32:47.339 : :(06)00:32:47:339
00:39:40.335 : :(07)00:39:40:335
00:46:04.760 : :(08)00:46:04:760
00:51:31.963 : :(09)00:51:31:963
00:58:03.730 : :(10)00:58:03:730
01:04:50.677 : :(11)01:04:50:677
01:12:46.819 : :(12)01:12:46:819
01:17:54.877 : :(13)01:17:54:877
01:24:46.537 : :(14)01:24:46:537
01:28:41.356 : :(15)01:28:41:356
01:33:34.149 : :(16)01:33:34:149
01:38:05.671 : :(17)01:38:05:671
01:41:52.980 : :(18)01:41:52:980
01:48:12.652 : :(19)01:48:12:652
01:53:13.286 : :(20)01:53:13:286
01:59:31.372 : :(21)01:59:31:372
02:05:52.211 : :(22)02:05:52:211
02:09:13.244 : :(23)02:09:13:244
02:13:53.524 : :(24)02:13:53:524
02:23:19.254 : :(25)02:23:19:254
02:28:15.636 : :(26)02:28:15:636
02:34:29.217 : :(27)02:34:29:217
02:38:48.558 : :(28)02:38:48:558
02:48:30.100 : :(29)02:48:30:100



Информация о фильме
Название: Пираты Карибского моря: На странных берегах
Оригинальное название: Pirates of the Caribbean: On Stranger Tides
Год выхода: 2011
Жанр: Фэнтези, боевик, комедия, приключения
Режиссер: Роб Маршалл
В ролях: Джонни Депп, Пенелопа Крус, Джеффри Раш Билл, Иэн МакШейн, Кевин МакНэлли, Сэм Клафлин, Астрид Берже-Фрисби, Стивен Грэм, Кит Ричардс, Маккензи Крук , Ричард Гриффитс, Дэмиан О’Хейр, Джонни Рис, Джуди Денч, Кристофер Фэйрбэнк, Энтон Лессер, Бронсон Уэбб
О фильме:
В новой истории о поисках истины, предательстве, вечной молодости и смертельной опасности капитану Джеку Воробью предстоит столкнуться с женщиной из своего прошлого Анжеликой. До самого конца не будет понятно, связывает ли их настоящая любовь, или же Анжелика искусно притворяется, чтобы вместе с Джеком добраться до таинственного источника вечной молодости.
Она силой принуждает капитана Джека Воробья взойти на корабль «Месть Королевы Анны», которым управляет коварный злодей Черная Борода. Наш герой оказывается в ситуации, когда он не знает, чего ему бояться больше - ужасного злодея или же свою давнюю подругу.

Страна: США
Продолжительность: 02:16:24
Перевод: Профессиональный дублированный
Файл
Кодек: HEVC x265 10 bit
Качество: BDRip-HEVC 1080p
Видео: 1920x800 (2,40:1), 5245 Кбит/сек, 0.142 бит/(Пиксели*Кадры), 23,976 кадр/сек (24000/1001), HEVC (Main10@L.5.1@High) 10 бит
Звук:
Русская, AC3, 640 kb/s, Front: L C R, Side: L R, LFE, 48.0 kHz (Дубляж Blu-ray)
Английская, AC3, 448 kb/s, Front: L C R, Side: L R, LFE, 48.0 kHz (Оригинал)
Субтитры: Русские (полные, форсированные), английские
Разделение по главам: есть
Семпл
General
Unique ID : 217439193551972084941383257919805440622 (0xA39543F0E51C9D5AAA489BFE626FC26E)
Complete name : I:HEVC 210 BITPirates of the Caribbean4 Pirates of the Caribbean_On Stranger Tides_2011_BDRip_1080p_[HEVC]_10bit.mkv
Format : Matroska
Format version : Version 4 / Version 2
File size : 6.04 GiB
Duration : 2 h 16 min
Overall bit rate : 6 335 kb/s
Encoded date : UTC 2017-09-27 15:34:06
Writing application : mkvmerge v9.9.0 ('Pick Up') 64bit
Writing library : libebml v1.3.4 + libmatroska v1.4.5
Cover : Yes
Attachments : cover.png
Video
ID : 1
Format : HEVC
Format/Info : High Efficiency Video Coding
Format profile : Main 10@L5.1@High
Codec ID : V_MPEGH/ISO/HEVC
Duration : 2 h 16 min
Bit rate : 5 245 kb/s
Width : 1 920 pixels
Height : 800 pixels
Display aspect ratio : 2.40:1
Frame rate mode : Constant
Frame rate : 23.976 (24000/1001) FPS
Color space : YUV
Chroma subsampling : 4:2:0
Bit depth : 10 bits
Bits/(Pixel*Frame) : 0.142
Stream size : 5.00 GiB (83%)
Writing library : x265 2.5+6-d11482e5fedb:[Windows][GCC 7.1.0][64 bit] 10bit
Encoding settings : cpuid=1173503 / frame-threads=4 / numa-pools=16 / wpp / no-pmode / no-pme / no-psnr / no-ssim / log-level=2 / input-csp=1 / input-res=1920x800 / interlace=0 / total-frames=0 / level-idc=51 / high-tier=1 / uhd-bd=0 / ref=5 / no-allow-non-conformance / no-repeat-headers / annexb / no-aud / no-hrd / info / hash=0 / no-temporal-layers / open-gop / min-keyint=23 / keyint=240 / bframes=8 / b-adapt=2 / no-b-pyramid / bframe-bias=0 / rc-lookahead=60 / lookahead-slices=4 / scenecut=40 / no-intra-refresh / ctu=64 / min-cu-size=8 / rect / no-amp / max-tu-size=32 / tu-inter-depth=4 / tu-intra-depth=4 / limit-tu=4 / rdoq-level=1 / dynamic-rd=0.00 / no-ssim-rd / signhide / no-tskip / nr-intra=0 / nr-inter=0 / no-constrained-intra / no-strong-intra-smoothing / max-merge=3 / limit-refs=3 / limit-modes / me=2 / subme=7 / merange=32 / temporal-mvp / weightp / weightb / no-analyze-src-pics / deblock=-3:-3 / no-sao / no-sao-non-deblock / rd=4 / no-early-skip / rskip / no-fast-intra / no-tskip-fast / no-cu-lossless / no-b-intra / rdpenalty=0 / psy-rd=2.00 / psy-rdoq=3.00 / no-rd-refine / analysis-reuse-mode=0 / no-lossless / cbqpoffs=0 / crqpoffs=0 / rc=crf / crf=19.0 / qcomp=0.70 / qpstep=4 / stats-write=0 / stats-read=0 / vbv-maxrate=160000 / vbv-bufsize=160000 / vbv-init=0.9 / crf-max=0.0 / crf-min=0.0 / ipratio=1.50 / pbratio=1.20 / aq-mode=1 / aq-strength=0.50 / cutree / zone-count=1 / zones: / start-frame=185796 / end-frame=196198 / qp=35 / no-strict-cbr / qg-size=32 / no-rc-grain / qpmax=69 / qpmin=0 / no-const-vbv / sar=0 / overscan=0 / videoformat=5 / range=0 / colorprim=2 / transfer=2 / colormatrix=1 / chromaloc=0 / display-window=0 / max-cll=0,0 / min-luma=0 / max-luma=1023 / log2-max-poc-lsb=8 / vui-timing-info / vui-hrd-info / slices=1 / opt-qp-pps / opt-ref-list-length-pps / no-multi-pass-opt-rps / scenecut-bias=0.05 / no-opt-cu-delta-qp / no-aq-motion / no-hdr / no-hdr-opt / no-dhdr10-opt / analysis-reuse-level=5 / scale-factor=0 / refine-intra=0 / refine-inter=0 / refine-mv=0 / no-limit-sao / ctu-info=0
Default : Yes
Forced : Yes
Color range : Limited
Matrix coefficients : BT.709
Audio #1
ID : 2
Format : AC-3
Format/Info : Audio Coding 3
Format settings, Endianness : Big
Codec ID : A_AC3
Duration : 2 h 16 min
Bit rate mode : Constant
Bit rate : 640 kb/s
Channel(s) : 6 channels
Channel positions : Front: L C R, Side: L R, LFE
Sampling rate : 48.0 kHz
Frame rate : 31.250 FPS (1536 spf)
Bit depth : 16 bits
Compression mode : Lossy
Stream size : 624 MiB (10%)
Title : Russian, AC3, 6 ch, 640 kb/s
Language : Russian
Service kind : Complete Main
Default : Yes
Forced : No
Audio #2
ID : 3
Format : AC-3
Format/Info : Audio Coding 3
Format settings, Endianness : Big
Codec ID : A_AC3
Duration : 2 h 16 min
Bit rate mode : Constant
Bit rate : 448 kb/s
Channel(s) : 6 channels
Channel positions : Front: L C R, Side: L R, LFE
Sampling rate : 48.0 kHz
Frame rate : 31.250 FPS (1536 spf)
Bit depth : 16 bits
Compression mode : Lossy
Stream size : 437 MiB (7%)
Title : English
Language : English
Service kind : Complete Main
Default : No
Forced : No
Text #1
ID : 4
Format : UTF-8
Codec ID : S_TEXT/UTF8
Codec ID/Info : UTF-8 Plain Text
Duration : 2 h 6 min
Bit rate : 0 b/s
Count of elements : 7
Stream size : 316 Bytes (0%)
Title : Forced
Language : Russian
Default : Yes
Forced : Yes
Text #2
ID : 5
Format : UTF-8
Codec ID : S_TEXT/UTF8
Codec ID/Info : UTF-8 Plain Text
Duration : 2 h 6 min
Bit rate : 78 b/s
Count of elements : 1340
Stream size : 73.3 KiB (0%)
Title : Full
Language : Russian
Default : No
Forced : No
Text #3
ID : 6
Format : UTF-8
Codec ID : S_TEXT/UTF8
Codec ID/Info : UTF-8 Plain Text
Duration : 2 h 5 min
Bit rate : 47 b/s
Count of elements : 1331
Stream size : 43.4 KiB (0%)
Title : Full
Language : English
Default : No
Forced : No
Menu
00:00:00.000 : :(01)00:00:00:000
00:03:34.169 : :(02)00:03:34:169
00:08:46.774 : :(03)00:08:46:774
00:15:56.080 : :(04)00:15:56:080
00:18:34.153 : :(05)00:18:34:153
00:21:15.315 : :(06)00:21:15:315
00:30:05.509 : :(07)00:30:05:509
00:36:56.755 : :(08)00:36:56:755
00:42:05.356 : :(09)00:42:05:356
00:48:20.021 : :(10)00:48:20:021
00:53:26.077 : :(11)00:53:26:077
00:55:42.963 : :(12)00:55:42:963
00:57:52.844 : :(13)00:57:52:844
01:00:47.476 : :(14)01:00:47:476
01:08:22.220 : :(15)01:08:22:220
01:11:41.337 : :(16)01:11:41:337
01:13:03.170 : :(17)01:13:03:170
01:14:16.743 : :(18)01:14:16:743
01:23:19.993 : :(19)01:23:19:993
01:26:49.621 : :(20)01:26:49:621
01:30:16.493 : :(21)01:30:16:493
01:35:43.737 : :(22)01:35:43:737
01:40:57.926 : :(23)01:40:57:926
01:43:07.555 : :(24)01:43:07:555
01:44:51.658 : :(25)01:44:51:658
01:48:53.609 : :(26)01:48:53:609
01:57:41.470 : :(27)01:57:41:470
02:02:21.375 : :(28)02:02:21:375
02:05:51.460 : :(29)02:05:51:460
02:07:26.805 : :(30)02:07:26:805
02:16:23.591 : :(31)02:16:23:591



Информация о фильме
Название: Пираты Карибского моря: Мертвецы не рассказывают сказки
Оригинальное название: Pirates of the Caribbean: Dead Men Tell No Tales
Год выхода: 2017
Жанр: Фэнтези, боевик, комедия, приключения
Режиссер: Хоаким Роннинг, Эспен Сандберг
В ролях: Джонни Депп, Кира Найтли, Кая Скоделарио, Дэвид Уэнэм, Орландо Блум, Джеффри Раш, Брентон Туэйтс, Хавьер Бардем, Голшифте Фарахани, Стивен Грэм
О фильме:
Исчерпавший свою удачу капитан Джек Воробей обнаруживает, что за ним охотится его старый неприятель, ужасный капитан Салазар и его призрачные пираты. Они только что сбежали из Дьявольского треугольника и намерены уничтожить всех пиратов, включая Джека. Поможет спастись лишь могущественный артефакт — трезубец Посейдона, который дарует своему обладателю полный контроль над морями.

Страна: США
Продолжительность: 02:09:07
Перевод: Профессиональный дублированный
Файл
Кодек: HEVC x265 10 bit
Качество: BDRip-HEVC 1080p
Видео: 1920x800 (2.40:1), 7374 Кбит/сек, 0.200 бит/(Пиксели*Кадры), 23,976 кадр/сек (24000/1001), HEVC (Main10@L.5.1@High) 10 бит
Звук:
Русский, AC3, 640 Кбит/сек,Front: L C R, Side: L R, LFE, 48,0 КГц (Дубляж Blu-ray)
Английский, AC3, 640 Кбит/сек, Front: L C R, Side: L R, LFE, 48,0 КГц (Оригинал)
Субтитры: Русские (форсированные, полные), Английские (полные)
Семпл
General
Unique ID : 229674166050619228218767308340859133868 (0xACC9A2A895CD0196B6EC2E18CEC25FAC)
Complete name : I:HEVC 210 BITPirates of the Caribbean5 Pirates of the Caribbean_Dead Men Tell No Tales_2017_BDRip_1080p_[HEVC]_10bit.mkv
Format : Matroska
Format version : Version 4 / Version 2
File size : 7.81 GiB
Duration : 2 h 9 min
Overall bit rate : 8 657 kb/s
Encoded date : UTC 2017-09-14 16:29:54
Writing application : mkvmerge v9.9.0 ('Pick Up') 64bit
Writing library : libebml v1.3.4 + libmatroska v1.4.5
Cover : Yes
Attachments : cover.png
Video
ID : 1
Format : HEVC
Format/Info : High Efficiency Video Coding
Format profile : Main 10@L5.1@High
Codec ID : V_MPEGH/ISO/HEVC
Duration : 2 h 9 min
Bit rate : 7 374 kb/s
Width : 1 920 pixels
Height : 800 pixels
Display aspect ratio : 2.40:1
Frame rate mode : Constant
Frame rate : 23.976 (24000/1001) FPS
Color space : YUV
Chroma subsampling : 4:2:0
Bit depth : 10 bits
Bits/(Pixel*Frame) : 0.200
Stream size : 6.65 GiB (85%)
Writing library : x265 2.5+6-d11482e5fedb:[Windows][GCC 7.1.0][64 bit] 10bit
Encoding settings : cpuid=1173503 / frame-threads=4 / numa-pools=16 / wpp / no-pmode / no-pme / no-psnr / no-ssim / log-level=2 / input-csp=1 / input-res=1920x800 / interlace=0 / total-frames=0 / level-idc=51 / high-tier=1 / uhd-bd=0 / ref=5 / no-allow-non-conformance / no-repeat-headers / annexb / no-aud / no-hrd / info / hash=0 / no-temporal-layers / open-gop / min-keyint=23 / keyint=240 / bframes=8 / b-adapt=2 / b-pyramid / bframe-bias=0 / rc-lookahead=40 / lookahead-slices=4 / scenecut=40 / no-intra-refresh / ctu=32 / min-cu-size=8 / rect / no-amp / max-tu-size=32 / tu-inter-depth=2 / tu-intra-depth=2 / limit-tu=4 / rdoq-level=1 / dynamic-rd=0.00 / no-ssim-rd / signhide / no-tskip / nr-intra=0 / nr-inter=0 / no-constrained-intra / strong-intra-smoothing / max-merge=3 / limit-refs=3 / limit-modes / me=2 / subme=6 / merange=32 / temporal-mvp / weightp / weightb / no-analyze-src-pics / deblock=-3:-3 / no-sao / no-sao-non-deblock / rd=5 / no-early-skip / rskip / no-fast-intra / no-tskip-fast / no-cu-lossless / no-b-intra / rdpenalty=0 / psy-rd=2.00 / psy-rdoq=5.00 / no-rd-refine / analysis-reuse-mode=0 / no-lossless / cbqpoffs=0 / crqpoffs=0 / rc=crf / crf=19.0 / qcomp=0.60 / qpstep=4 / stats-write=0 / stats-read=0 / vbv-maxrate=160000 / vbv-bufsize=160000 / vbv-init=0.9 / crf-max=0.0 / crf-min=0.0 / ipratio=1.40 / pbratio=1.30 / aq-mode=1 / aq-strength=0.80 / cutree / zone-count=1 / zones: / start-frame=173913 / end-frame=185748 / qp=35 / no-strict-cbr / qg-size=32 / no-rc-grain / qpmax=69 / qpmin=0 / no-const-vbv / sar=0 / overscan=0 / videoformat=5 / range=0 / colorprim=2 / transfer=2 / colormatrix=1 / chromaloc=0 / display-window=0 / max-cll=0,0 / min-luma=0 / max-luma=1023 / log2-max-poc-lsb=8 / vui-timing-info / vui-hrd-info / slices=1 / opt-qp-pps / opt-ref-list-length-pps / no-multi-pass-opt-rps / scenecut-bias=0.05 / no-opt-cu-delta-qp / aq-motion / no-hdr / no-hdr-opt / no-dhdr10-opt / analysis-reuse-level=5 / scale-factor=0 / refine-intra=0 / refine-inter=0 / refine-mv=0 / no-limit-sao / ctu-info=0
Default : Yes
Forced : Yes
Color range : Limited
Matrix coefficients : BT.709
Audio #1
ID : 2
Format : AC-3
Format/Info : Audio Coding 3
Format settings, Endianness : Big
Codec ID : A_AC3
Duration : 2 h 9 min
Bit rate mode : Constant
Bit rate : 640 kb/s
Channel(s) : 6 channels
Channel positions : Front: L C R, Side: L R, LFE
Sampling rate : 48.0 kHz
Frame rate : 31.250 FPS (1536 spf)
Bit depth : 16 bits
Compression mode : Lossy
Stream size : 591 MiB (7%)
Title : Дубляж
Language : Russian
Service kind : Complete Main
Default : Yes
Forced : No
Audio #2
ID : 3
Format : AC-3
Format/Info : Audio Coding 3
Format settings, Endianness : Big
Codec ID : A_AC3
Duration : 2 h 9 min
Bit rate mode : Constant
Bit rate : 640 kb/s
Channel(s) : 6 channels
Channel positions : Front: L C R, Side: L R, LFE
Sampling rate : 48.0 kHz
Frame rate : 31.250 FPS (1536 spf)
Bit depth : 16 bits
Compression mode : Lossy
Stream size : 591 MiB (7%)
Title : оригинал
Language : English
Service kind : Complete Main
Default : No
Forced : No
Text #1
ID : 4
Format : UTF-8
Codec ID : S_TEXT/UTF8
Codec ID/Info : UTF-8 Plain Text
Duration : 1 h 17 min
Bit rate : 0 b/s
Count of elements : 11
Stream size : 540 Bytes (0%)
Title : русские forced
Language : Russian
Default : Yes
Forced : No
Text #2
ID : 5
Format : UTF-8
Codec ID : S_TEXT/UTF8
Codec ID/Info : UTF-8 Plain Text
Duration : 1 h 59 min
Bit rate : 72 b/s
Count of elements : 1319
Stream size : 62.9 KiB (0%)
Title : русские full
Language : Russian
Default : No
Forced : No
Text #3
ID : 6
Format : UTF-8
Codec ID : S_TEXT/UTF8
Codec ID/Info : UTF-8 Plain Text
Duration : 2 h 7 min
Bit rate : 48 b/s
Count of elements : 1772
Stream size : 45.7 KiB (0%)
Language : English
Default : No
Forced : No


Релиз от: от XuMuK

   Похожие торренты   Торрент   Размер 
В этой теме нет новых непрочитанных сообщений. Пираты Карибского моря: Мертвецы не рассказывают сказки / Pirates of the Caribbean: Dead Men Tell No Tales (2017) BDRip-HEVC 1080p от ХиМиК | Лицензия

1609 | 71

7.81 ГБ

В этой теме нет новых непрочитанных сообщений. Пираты Карибского моря: Коллекция / Pirates of the Caribbean: Collection (2003-2017) BDRip 1080p

90 | 12

98.51 ГБ

В этой теме нет новых непрочитанных сообщений. Пираты Карибского моря: Мертвецы не рассказывают сказки / Pirates of the Caribbean: Dead Men Tell No Tales (2017) BDRip HEVC 720р | Лицензия

1233 | 104

3.6 ГБ

В этой теме нет новых непрочитанных сообщений. Пираты Карибского моря: Проклятие Черной жемчужины / Pirates of the Caribbean: The Curse of the Black Pearl (2003) WEB-DL-HEVC 2160p | 4K | Dolby Vision TV | D, P, P2, A

0 | 0

30.98 ГБ

В этой теме нет новых непрочитанных сообщений. Пираты Карибского моря: Проклятие Черной жемчужины / Pirates of the Caribbean: The Curse of the Black Pearl (2003) BDRemux 1080p | D, P2, A

0 | 0

41.37 ГБ

В этой теме нет новых непрочитанных сообщений. Пираты Карибского моря: Мертвецы не рассказывают сказки / Pirates of the Caribbean: Dead Men Tell No Tales (2017) BDRip 1080p от ExKinoRay

2459 | 235

11.53 ГБ

В этой теме нет новых непрочитанных сообщений. Пираты Карибского моря: Мертвецы не рассказывают сказки / Pirates of the Caribbean: Dead Men Tell No Tales (2017) WEB-DL-HEVC 2160p | 4K | Dolby Vision TV | D, A | Лицензия

0 | 0

27.48 ГБ




Вы не можете начинать темы
Вы не можете отвечать на сообщения
Вы не можете редактировать свои сообщения
Вы не можете удалять свои сообщения
Вы не можете добавлять вложения

Перейти:  
Контактная информация: rstracker[пёсик]yandex.ru
 Вход
ppkBB3cker v.2 © 2008-2014 @ PPK
[ Time : 0.040s | 19 Queries | GZIP : Off ]

cron