img image001 image001 image001 image001 image001 image001 image001 image001 image001 image001 image001 image001 image001 image001 image001

Planets Sun Sun Sun

COVID-19 - Последняя информация о коронавирусе на сайте Минздрава | СИДИТЕ ДОМА!


Статистика раздачи
Автор: Nickolas3434 | Размер: 1.47 ГБ | Добавлен: 03 окт 2017
Раздают: 46    Качают: 9
Скачать торрент
Скачать торрент
Описание торрента

СообщениеДобавлено: 03 окт 2017 



Наша группа ВКонтакте
Присоединяйтесь!

Моя кузина Рэйчел
My Cousin Rachel


Страна: Великобритания, США
Жанр: драма, мелодрама, детектив
Год выпуска: 2017
Продолжительность: 01:46:08
Перевод: Профессиональный (многоголосый, закадровый) [Blu-ray CEE]
Субтитры: нет
Оригинальная аудиодорожка: нет
Режиссер: Роджер Мишелл / Roger Michell
В ролях: Сэм Клафлин, Рэйчел Вайс, Иэн Глен, Холлидей Грейнджер, Поппи Ли Фрайер, Эндрю Нотт, Вики Пеппердин, Пьерфранческо Фавино, Эндрю Хавилл, Кэтерин Пирс, Тим Барлоу, Аттила Дж. Керекеш
Описание:
Филип очень привязан к своему приемному отцу Эмброузу. Однако во время поездки по Италии Эмброуз знакомится с Рэйчел, своей дальней родственницей, женится на ней и вскоре умирает. Филип уверен, что коварная красотка Рэйчел убила его опекуна, чтобы заполучить состояние супруга. Оттачивая план мести, он не замечает, как сам влюбляется в Рэйчел.

Релиз:
Автор рипа: stalkerok
Сэмпл
Качество видео: BDRip-AVC [My Cousin Rachel (2017) Blu-ray CEE 1080p]
Формат видео: MKV
Видео кодек: AVC
Аудио кодек: AC3
Видео: 1534 Кбит/сек, 1022x428 (2.40:1), 23,976 кадр/сек, AVC
Аудио: русский, 448 Кбит/сек, 48 КГц, 5.1, AC3
Навигация по главам: есть

x264 [info]: frame I:955 Avg QP:15.25 size: 61531
x264 [info]: frame P:29437 Avg QP:17.71 size: 18750
x264 [info]: frame B:122307 Avg QP:19.69 size: 4997
General
Unique ID : 248961821543250806083987661810955063094 (0xBB4C4D7E877FC377BDD533F1EB5E0F36)
Complete name : M:!Rips2017My Cousin RachelMy.Cousin.Rachel.2017.BDRip-AVC.RUS.stalkerok.new-team.mkv
Format : Matroska
Format version : Version 4 / Version 2
File size : 1.47 GiB
Duration : 1 h 46 min
Overall bit rate : 1 984 kb/s
Movie name : My Cousin Rachel (2017) (Rip by stalkerok)
Encoded date : UTC 2017-10-03 13:55:27
Writing application : mkvmerge v8.6.1 ('Flying') 64bit
Writing library : libebml v1.3.3 + libmatroska v1.4.4
Video
ID : 1
Format : AVC
Format/Info : Advanced Video Codec
Format profile : High@L4.1
Format settings, CABAC : Yes
Format settings, ReFrames : 14 frames
Codec ID : V_MPEG4/ISO/AVC
Duration : 1 h 46 min
Bit rate : 1 535 kb/s
Width : 1 022 pixels
Height : 428 pixels
Display aspect ratio : 2.40:1
Frame rate mode : Constant
Frame rate : 23.976 (24000/1001) FPS
Color space : YUV
Chroma subsampling : 4:2:0
Bit depth : 8 bits
Scan type : Progressive
Bits/(Pixel*Frame) : 0.146
Stream size : 1.14 GiB (77%)
Title : My Cousin Rachel (2017) (Rip by stalkerok)
Writing library : x264 core 150 r2833kMod df79067
Encoding settings : cabac=1 / ref=14 / deblock=1:-3:-2 / analyse=0x3:0x133 / me=umh / subme=11 / psy=1 / fade_compensate=0.00 / psy_rd=1.00:0.00 / mixed_ref=1 / me_range=32 / chroma_me=1 / trellis=2 / 8x8dct=1 / cqm=0 / deadzone=21,11 / fast_pskip=0 / chroma_qp_offset=-2 / threads=12 / lookahead_threads=3 / sliced_threads=0 / nr=0 / decimate=1 / interlaced=0 / bluray_compat=0 / constrained_intra=0 / bframes=14 / b_pyramid=2 / b_adapt=2 / b_bias=0 / direct=3 / weightb=1 / open_gop=0 / weightp=2 / keyint=240 / keyint_min=23 / scenecut=40 / intra_refresh=0 / rc_lookahead=60 / rc=crf / mbtree=0 / crf=18.0000 / qcomp=0.65 / qpmin=0 / qpmax=69 / qpstep=4 / vbv_maxrate=50000 / vbv_bufsize=62500 / crf_max=0.0 / nal_hrd=none / filler=0 / ip_ratio=1.40 / pb_ratio=1.25 / aq=3:0.80 / zones=145883,152698,q=32
Default : Yes
Forced : No
Audio
ID : 2
Format : AC-3
Format/Info : Audio Coding 3
Mode extension : CM (complete main)
Format settings, Endianness : Big
Codec ID : A_AC3
Duration : 1 h 46 min
Bit rate mode : Constant
Bit rate : 448 kb/s
Channel(s) : 6 channels
Channel positions : Front: L C R, Side: L R, LFE
Sampling rate : 48.0 kHz
Frame rate : 31.250 FPS (1536 spf)
Compression mode : Lossy
Stream size : 340 MiB (23%)
Language : Russian
Default : Yes
Forced : No
Menu
00:00:00.000 : en:Chapter 1
00:02:58.678 : en:Chapter 2
00:07:00.378 : en:Chapter 3
00:10:28.586 : en:Chapter 4
00:15:20.419 : en:Chapter 5
00:19:11.692 : en:Chapter 6
00:23:50.971 : en:Chapter 7
00:31:10.034 : en:Chapter 8
00:33:23.167 : en:Chapter 9
00:38:23.801 : en:Chapter 10
00:41:37.578 : en:Chapter 11
00:45:18.424 : en:Chapter 12
00:52:34.151 : en:Chapter 13
00:56:19.793 : en:Chapter 14
00:59:30.275 : en:Chapter 15
01:03:29.138 : en:Chapter 16
01:10:56.335 : en:Chapter 17
01:17:54.961 : en:Chapter 18
01:21:38.518 : en:Chapter 19
01:26:31.686 : en:Chapter 20
01:28:48.156 : en:Chapter 21
01:33:51.292 : en:Chapter 22
01:39:14.114 : en:Chapter 23
01:41:29.416 : en:Chapter 24



   Похожие торренты   Торрент   Размер 
В этой теме нет новых непрочитанных сообщений. Моя кузина Рэйчел / My Cousin Rachel (2017) BDRip-AVC от New-Team | Лицензия

47 | 4

2.17 ГБ

В этой теме нет новых непрочитанных сообщений. Моя кузина Рэйчел / My Cousin Rachel (2017) BDRip-AVC от New-Team | Лицензия

24 | 3

746 МБ

В этой теме нет новых непрочитанных сообщений. Моя кузина Рэйчел / My Cousin Rachel (2017) BDRip 720p | Лицензия

228 | 33

5.99 ГБ

В этой теме нет новых непрочитанных сообщений. Моя кузина Рэйчел / My Cousin Rachel (2017) BDRip от HQCLUB | P | Лицензия

26 | 4

2.18 ГБ

В этой теме нет новых непрочитанных сообщений. Моя кузина Рэйчел / My Cousin Rachel (2017) BDRip-AVC от OlLanDGroup | Лицензия

11 | 3

1.91 ГБ

В этой теме нет новых непрочитанных сообщений. Моя кузина Рэйчел / My Cousin Rachel (2017) BDRip от MegaPeer | Лицензия

52 | 8

746.73 МБ

В этой теме нет новых непрочитанных сообщений. Моя кузина Рэйчел / My Cousin Rachel (2017) BDRip от MegaPeer | Лицензия

498 | 10

1.46 ГБ




Вы не можете начинать темы
Вы не можете отвечать на сообщения
Вы не можете редактировать свои сообщения
Вы не можете удалять свои сообщения
Вы не можете добавлять вложения

Перейти:  
 Вход
ppkBB3cker v.2 © 2008-2014 @ PPK
[ Time : 0.029s | 17 Queries | GZIP : Off ]

cron