img image001 image001 image001 image001 image001 image001 image001 image001 image001 image001 image001 image001 image001 image001 image001

Planets Sun Sun Sun
Статистика раздачи
Автор: Nickolas3434 | Размер: 745.95 МБ | Добавлен: 09 окт 2017
Раздают: 2    Качают: 1
Скачать торрент
Скачать торрент
Описание торрента

СообщениеДобавлено: 09 окт 2017 

Информация о фильме
Название: Лихорадка
Оригинальное название: Cabin Fever
Год выхода: 2002
Жанр: ужасы
Режиссер: Элай Рот
В ролях: Райдер Стронг, Джордан Лэдд, Джеймс ДеБелло, Серина Винсент, Джои Керн, Эри Вервин, Роберт Харрис, Хэл Кортни, Мэттью Хелмс, Ричард Бун
О фильме :
Пять выпускников колледжа отправляются в отдаленную лесную хижину, чтобы развлечься перед вступлением в трудовую жизнь. Но каникулы омрачились гибельным вторжением незнакомца в кровавых струпьях. Опасаясь заражения, друзья открыли огонь, но "прокаженный" сбежал, успев инфицировать девушку вирусом, уничтожающим плоть человеческую. Ребята заперли подружку в хижине, а сами бросились в лес, охваченные диким страхом и неведением. Кто из них следующая жертва?

Страна: США
Продолжительность: 01:28:19
Перевод: Профессиональный (полное дублирование)
Файл
Формат: MKV
Качество: HDRip-AVC
Видео: MPEG-4 AVC, 768x320, ~ 1103 Кбит/с
Аудио: AAC-LC, 2 ch, ~76 Кбит/с
Общее
Уникальный идентификатор : 240491482649734301125000922188834423001 (0xB4ECF98B37590BDB8149280F95D840D9)
Полное имя : D:MOVIESCabin.Fever.2002.ExKinoRay.mkv
Формат : Matroska
Версия формата : Version 4 / Version 2
Размер файла : 746 Мбайт
Продолжительность : 1 ч. 28 м.
Общий поток : 1181 Кбит/сек
Дата кодирования : UTC 2017-10-08 17:03:48
Программа кодирования : mkvmerge v15.0.0 ('Duel with the Devil') 64-bit
Библиотека кодирования : libebml v1.3.5 + libmatroska v1.4.5
Видео
Идентификатор : 1
Формат : AVC
Формат/Информация : Advanced Video Codec
Профиль формата : High@L4.1
Параметр CABAC формата : Да
Параметр RefFrames формата : 10 кадров
Идентификатор кодека : V_MPEG4/ISO/AVC
Продолжительность : 1 ч. 28 м.
Битрейт : 1103 Кбит/сек
Ширина : 768 пикселей
Высота : 320 пикселей
Соотношение сторон : 2,40:1
Режим частоты кадров : Постоянный
Частота кадров : 25,000 кадров/сек
Цветовое пространство : YUV
Субдискретизация насыщенности : 4:2:0
Битовая глубина : 8 бит
Тип развёртки : Прогрессивная
Бит/(Пиксели*Кадры) : 0.180
Размер потока : 697 Мбайт (93%)
Библиотека кодирования : x264 core 152 r2851kMod ba24899
Настройки программы : cabac=1 / ref=10 / deblock=1:-2:-2 / analyse=0x3:0x113 / me=umh / subme=11 / psy=1 / fade_compensate=0.00 / psy_rd=1.00:0.15 / mixed_ref=1 / me_range=32 / chroma_me=1 / trellis=2 / 8x8dct=1 / cqm=0 / deadzone=21,11 / fast_pskip=0 / chroma_qp_offset=-3 / threads=6 / lookahead_threads=1 / sliced_threads=0 / nr=0 / decimate=0 / interlaced=0 / bluray_compat=0 / constrained_intra=0 / bframes=10 / b_pyramid=2 / b_adapt=2 / b_bias=0 / direct=3 / weightb=1 / open_gop=0 / weightp=2 / keyint=250 / keyint_min=24 / scenecut=40 / intra_refresh=0 / rc_lookahead=40 / rc=2pass / mbtree=1 / bitrate=1103 / ratetol=1.0 / qcomp=0.60 / qpmin=0 / qpmax=69 / qpstep=4 / cplxblur=20.0 / qblur=0.5 / vbv_maxrate=50000 / vbv_bufsize=62500 / nal_hrd=none / filler=0 / ip_ratio=1.40 / aq=3:1.00
Default : Да
Forced : Нет
Аудио
Идентификатор : 2
Формат : AAC
Формат/Информация : Advanced Audio Codec
Профиль формата : LC
Идентификатор кодека : A_AAC
Продолжительность : 1 ч. 28 м.
Битрейт : 76,0 Кбит/сек
Каналы : 2 канала
Расположение каналов : Front: L R
Частота : 48,0 КГц
Частота кадров : 46,875 кадров/сек (1024 SPF)
Метод сжатия : С потерями
Задержка видео : 9 мс.
Размер потока : 48,0 Мбайт (6%)
Default : Да
Forced : Нет



Релиз от:



   Похожие торренты   Торрент   Размер 
В этой теме нет новых непрочитанных сообщений. Лихорадка / Cabin Fever (2016) WEB-DL 720p | L1

1676 | 64

3.17 ГБ

В этой теме нет новых непрочитанных сообщений. Лихорадка / Cabin Fever (2016) WEB-DLRip | L1

4921 | 153

1.46 ГБ

В этой теме нет новых непрочитанных сообщений. Лихорадка / Cabin Fever (2016) BDRemux 1080p | L1

5 | 1

15.47 ГБ

В этой теме нет новых непрочитанных сообщений. Лихорадка / Cabin Fever (2016) BDRip 720p | L1

3 | 0

4.26 ГБ

В этой теме нет новых непрочитанных сообщений. Лихорадка: Пациент Зеро / Cabin Fever: Patient Zero (2014) BDRip-AVC | L2

132 | 13

2.18 ГБ

В этой теме нет новых непрочитанных сообщений. Последние каникулы 2 / Cabin Fever 2: Spring Fever (2009) HDRip | P

386 | 36

701.67 МБ

В этой теме нет новых непрочитанных сообщений. Последние каникулы 2 / Cabin Fever 2: Spring Fever (2009) BDRip 1080p | Р, L2

5 | 3

6.25 ГБ




Вы не можете начинать темы
Вы не можете отвечать на сообщения
Вы не можете редактировать свои сообщения
Вы не можете удалять свои сообщения
Вы не можете добавлять вложения

Перейти:  
 Вход
ppkBB3cker v.2 © 2008-2014 @ PPK
[ Time : 0.034s | 18 Queries | GZIP : Off ]

cron