img image001 image001 image001 image001 image001 image001 image001 image001 image001 image001 image001 image001 image001 image001 image001

Planets Sun Sun Sun
Статистика раздачи
Автор: Nickolas3434 | Размер: 6.72 ГБ | Добавлен: 10 окт 2017
Раздают: 11    Качают: 4
Скачать торрент
Скачать торрент
Описание торрента

СообщениеДобавлено: 10 окт 2017 

Информация о фильме
Название: Потерянные в Америке
Оригинальное название: Lost in America
Год выхода: 1985
Жанр: комедия
Режиссер: Альберт Брукс
В ролях: Альберт Брукс, Джули Хэгерти, Сильвия Фаррел, Тина Кинкейд, Кэнди Энн Браун, Мэгги Росвэлл, Ганс Вагнер, Брэнди Рубин, Майкл Грин, Роберт Хьюз, Рэйнольд Гидеон, Джон Ди Фуско, Майкл Корнелисон, Раду Гэйвор, Джон Рид, Пэт Гаррисон, Гэрри Маршалл
Описание:
В тридцать лет муж и жена решают оставить работу, жить свободно и путешествовать по Америке в доме на колесах.

Страна: США
Продолжительность: 01:31:30
Перевод: Любительский (одноголосый закадровый) Олег Воротилин
Субтитры: русские beroal, английские
Оригинальная аудиодорожка: английский
Файл
Качество: BDRip 720p
Видео: AVC / 1280x692 / 23.976 fps / 9921 Kbps / High@L4.1
Аудио 1: Rus / AC3 / 48.0 KHz / 1.0 / 192kbps / VO / О. Воротилин
Аудио 2: Eng / AC3 / 48.0 KHz / 1.0 / 192kbps
General
Unique ID : 193781971548375681806656099027647794581 (0x91C90CD7DBCEC6F935C22E1F5BE50D95)
Complete name : F:FILMSПотерянные в Америке.1085.BLU-RAY.720p.[-=DoMiNo=-].mkv
Format : Matroska
Format version : Version 4 / Version 2
File size : 6.72 GiB
Duration : 1 h 31 min
Overall bit rate : 10.5 Mb/s
Movie name : Потерянные в Америке
Deion : В тридцать лет муж и жена решают оставить работу, жить свободно и путешествовать по Америке в доме на колесах.
Writing application : XviD4PSP 7.0.408 DAILY
Writing library : Lavf57.71.100
ErrorDetectionType : Per level 1
Attachments : poster.jpg
ACTORS : Альберт Брукс, Джули Хэгерти, Сильвия Фаррел, Тина Кинкейд, Кэнди Энн Браун, Мэгги Росвэлл, Ганс Вагнер, Брэнди Рубин, Майкл Грин, Tom Tarpey, Роберт Хьюз, Рэйнольд Гидеон, Джон Ди Фуско, Майкл Корнелисон, Раду Гэйвор, Джон Рид, Пэт Гаррисон, Гэрри Маршалл, Байрон Тонг, Гэйл Ланза, Дональд Гибб, Чарльз Босуэлл, Зик Мэннерс, Беа Мэннерс, Эрни Браун, Арт Франкель, Марк Сидни, Дэвид Майкл Кац, Рауль Флорес, Херб Нанас, Джои Коулмэн, Рекс Рид, Присцилла Кори, Боб Хьюз, Ларри Кинг
COMPOSER : Артур Б. Рубинстайн
COUNTRY : США
DATE : 1985
DIRECTOR : Альберт Брукс
ENCODING_INFO : MATROSKA,WEBM > MKV 720p / H264 > X264 CRF 18.0 Произвольный / AC3 > COPY Безопасное / FLAC > AC3 CBR 192kbps
GENRE : комедия
HD_VIDEO : 1
IMDB_RATING : 7.10
ITUNEXTC : mpaa|R|400|
Language : und
MEDIA_TYPE : 9
ORIGINAL_ACTORS : Albert Brooks, Julie Hagerty, Sylvia Farrel, Tina Kincaid, Candy Ann Brown, Maggie Roswell, Hans Wagner, Brandy Rubin, Michael Greene, Robert Hughes, Raynold Gideon, John Di Fusco, Michael Cornelison, Radu Gavor, John Reade (в титрах: John C. Reade), Pat Garrison, Garry Marshall (в титрах: Garry K. Marshall), Byron Tong, Gayle Lanza, Donald Gibb, Charles Boswell, Zeke Manners, Bea Manners, Ernie Brown, Art Frankel, Mark Sydney, David Michael Katz (в титрах: David Katz), Raul Flores, Herb Nanas, Joey Coleman, Rex Reed, Priscilla Cory, Bob Hughes, Larry King
ORIGINAL_TITLE : Lost in America
PRODUCER : Марти Кац, Херб Нанас
RATING : 6.220
WRITER : Альберт Брукс, Моника Макгоун Джонсон
Video
ID : 1
Format : AVC
Format/Info : Advanced Video Codec
Format profile : High@L4.1
Format settings, CABAC : Yes
Format settings, RefFrames : 8 frames
Codec ID : V_MPEG4/ISO/AVC
Duration : 1 h 31 min
Bit rate : 9 921 kb/s
Width : 1 280 pixels
Height : 692 pixels
Display aspect ratio : 1.85:1
Frame rate mode : Constant
Frame rate : 23.976 (24000/1001) FPS
Color space : YUV
Chroma subsampling : 4:2:0
Bit depth : 8 bits
Scan type : Progressive
Bits/(Pixel*Frame) : 0.467
Stream size : 6.34 GiB (94%)
Title : BLU-RAY_720p_RIP_BY_-=DoMiNo=-
Writing library : x264 core 152 r2851M ba24899
Encoding settings : cabac=1 / ref=8 / deblock=1:-3:-3 / analyse=0x3:0x133 / me=umh / subme=10 / psy=1 / psy_rd=1.00:0.05 / mixed_ref=1 / me_range=48 / chroma_me=1 / trellis=2 / 8x8dct=1 / cqm=0 / deadzone=21,11 / fast_pskip=1 / chroma_qp_offset=-3 / threads=5 / lookahead_threads=1 / sliced_threads=0 / nr=0 / decimate=1 / interlaced=0 / bluray_compat=0 / constrained_intra=0 / bframes=9 / b_pyramid=2 / b_adapt=2 / b_bias=0 / direct=3 / weightb=1 / open_gop=0 / weightp=2 / keyint=230 / keyint_min=23 / scenecut=40 / intra_refresh=0 / rc_lookahead=60 / rc=crf / mbtree=1 / crf=18.0 / qcomp=0.65 / qpmin=0 / qpmax=69 / qpstep=4 / ip_ratio=1.40 / aq=1:1.00
Default : Yes
Forced : No
Audio #1
ID : 2
Format : AC-3
Format/Info : Audio Coding 3
Format settings, Endianness : Big
Codec ID : A_AC3
Duration : 1 h 31 min
Bit rate mode : Constant
Bit rate : 192 kb/s
Channel(s) : 1 channel
Channel positions : Front: C
Sampling rate : 48.0 kHz
Frame rate : 31.250 FPS (1536 SPF)
Bit depth : 16 bits
Compression mode : Lossy
Stream size : 126 MiB (2%)
Title : VO [О. Воротилин]
Language : Russian
Service kind : Complete Main
Default : Yes
Forced : No
Audio #2
ID : 3
Format : AC-3
Format/Info : Audio Coding 3
Format settings, Endianness : Big
Codec ID : A_AC3
Duration : 1 h 31 min
Bit rate mode : Constant
Bit rate : 192 kb/s
Channel(s) : 1 channel
Channel positions : Front: C
Sampling rate : 48.0 kHz
Frame rate : 31.250 FPS (1536 SPF)
Bit depth : 16 bits
Compression mode : Lossy
Stream size : 126 MiB (2%)
Language : English
Service kind : Complete Main
Default : No
Forced : No
Text #1
ID : 4
Format : UTF-8
Codec ID : S_TEXT/UTF8
Codec ID/Info : UTF-8 Plain Text
Duration : 1 h 28 min
Title : [beroal]
Language : Russian
Default : Yes
Forced : No
Text #2
ID : 5
Format : UTF-8
Codec ID : S_TEXT/UTF8
Codec ID/Info : UTF-8 Plain Text
Duration : 1 h 28 min
Language : English
Default : No
Forced : No
Menu
00:00:00.000 : :00:00:00.000
00:07:19.648 : :00:07:19.648
00:13:36.357 : :00:13:36.357
00:20:39.405 : :00:20:39.405
00:23:40.628 : :00:23:40.628
00:29:05.452 : :00:29:05.452
00:31:32.307 : :00:31:32.307
00:37:55.982 : :00:37:55.982
00:43:24.685 : :00:43:24.685
00:49:52.156 : :00:49:52.156
00:58:38.473 : :00:58:38.473
01:01:39.446 : :01:01:39.446
01:07:45.103 : :01:07:45.103
01:10:53.499 : :01:10:53.499
01:18:04.680 : :01:18:04.680
01:21:38.060 : :01:21:38.060
01:25:14.359 : :01:25:14.359



   Похожие торренты   Торрент   Размер 
В этой теме нет новых непрочитанных сообщений. Потерянные в Америке / Lost in America (1985) BDRip-AVC | L1

13 | 9

1.45 ГБ

В этой теме нет новых непрочитанных сообщений. Потерянные в Америке / Lost in America (1985) BDRip | L1

34 | 11

1.45 ГБ

В этой теме нет новых непрочитанных сообщений. Потерянные в Америке / Lost in America (1985) BDRemux 1080р | L1

0 | 2

23.77 ГБ

В этой теме нет новых непрочитанных сообщений. Потерянные Цивилизации Южной Америки / BBC - Lost Kingdoms of South America (2013) HDTV 720p | Sub

7 | 3

1.52 ГБ

В этой теме нет новых непрочитанных сообщений. Однажды в Америке / Once Upon a Time in America (1984) BDRip 720p | Extended Cut

25 | 16

24.5 ГБ

В этой теме нет новых непрочитанных сообщений. Как преуспеть в америке / How to Make It in America [S01] (2010) BDRip 720p | Кубик в Кубе

14 | 8

11.68 ГБ

В этой теме нет новых непрочитанных сообщений. Однажды в Америке / Once Upon a Time in America (1983) BDRip 720p от Leonardo and Scarabey | P, P2, A

476 | 119

8.88 ГБ




Вы не можете начинать темы
Вы не можете отвечать на сообщения
Вы не можете редактировать свои сообщения
Вы не можете удалять свои сообщения
Вы не можете добавлять вложения

Перейти:  
Для Мосгорсуда, Роскомнадзора и рекламодателей: mosgorsud-torrent[собачка]yandex.ru
 Вход
ppkBB3cker v.2 © 2008-2014 @ PPK
[ Time : 0.045s | 19 Queries | GZIP : Off ]

Торрент трекер RUTOR.IN, Не можете зайти на rutor.org? Какой новый адрес рутор? Какое зеркало рутор? Не работает rutor.org и зеркала? Тогда наш торрент специально для вас. Rutor.in неофициальное зеркало rutor. В случае если у Вас заблокирован rutor или вдруг Вы не можете на него зайти, то Вы без труда сможете скачать бесплатно и без рекламы последние новинки кино, игр, сериалов и прочего у нас, на Rutor.in. Не нужно использовать прокси, чтобы зайти на рутор, достаточно воспользоваться нашим ресурсом. Все новые фильмы, игры, сериалы, книги и музыка за 2013 и 2014 годы через торрент бесплатно. Скачивайте фильмы в хорошем качестве, игры для пк, xbox, playstation без регистрации. У нас вы найдете новые Зарубежные сериалы и Русские сериалы 2013, 2014, 2015 годов. Оставайтесь с нами, качайте любимые фильмы, игры, сериалы, книги и музыку.
cron