img image001 image001 image001 image001 image001 image001 image001 image001 image001 image001 image001 image001 image001 image001 image001

Planets Sun Sun Sun
Статистика раздачи
Автор: Nickolas3434 | Размер: 1.46 ГБ | Добавлен: 10 окт 2017
Раздают: 26    Качают: 7
Скачать торрент
Скачать торрент
Описание торрента

СообщениеДобавлено: 10 окт 2017 

Команда мечты / La Dream Team
Страна: Франция
Производство: DD Productions, Orange Studio, Source Films, TF1, TMC, uFund, uMedia Family
Год выпуска: 2016
Жанр: комедия
Продолжительность: 01:36:56
Режиссер: Тома Соррио
Авторы сценария: Тома Соррио, Морган Спиллемекер
В ролях: Меди Садун, Жерар Депардье, Шанталь Лоби, Барбара Кабрита, Лиа Лопез, Патрик Тимси, Винсент Бауэн, Тео Фернандез, Винсент Н’Диайе
Описание: Максим Белло является одним из самых известных и высокооплачиваемых французских футболистов. У него много денег и масса поклонников. Но герой настолько же заносчив и самоуверен, насколько талантлив. На футбольном поле он настоящий профессионал, поражающий публику своим мастерством, но вне его он постоянно попадает в неприятности из-за своего непростого характера. Очередной инцидент вне поля становится для Максима настоящей трагедией — он по собственной глупости получает серьёзную травму ноги. Его карьера оказывается под угрозой, начинают ходить слухи, что он больше не сможет выйти на футбольное поле, и люди постепенно забывают о нём. Чтобы исправить пошатнувшуюся репутацию и перезапустить карьеру, агент предлагает ему отправиться в родную деревню, где до сих пор живёт его отец...

Перевод: Профессиональный (многоголосый, закадровый) | телеканал Кинопоказ HD2
Субтитры: нет

Качество: HDRip
Формат: АVI
Видео кодек: XviD
Аудио кодек: АС3
Видео: 720x304 (2.35:1), 24.000 fps, XviD ~1 948 kbps avg
Аудио: 48.0 kHz, AC3 Dolby Digital, 2/0 (L,R) ch, ~192 kbps
Дата премьеры (мир): 16 марта 2016

General
Format : AVI
Format/Info : Audio Video Interleave
File size : 1.46 GiB
Duration : 1 h 36 min
Overall bit rate : 2 149 kb/s
Writing application : VirtualDubMod 1.5.10.3 | (build 2550/release)
Writing library : VirtualDubMod build 2550/release
Video
ID : 0
Format : MPEG-4 Visual
Format profile : Advanced Simple@L5
Format settings : BVOP1 / Custom Matrix
Format settings, BVOP : 1
Format settings, QPel : No
Format settings, GMC : No warppoints
Format settings, Matrix : Custom
Codec ID : XVID
Codec ID/Hint : XviD
Duration : 1 h 36 min
Bit rate : 1 948 kb/s
Width : 720 pixels
Height : 304 pixels
Display aspect ratio : 2.35:1
Frame rate : 24.000 FPS
Color space : YUV
Chroma subsampling : 4:2:0
Bit depth : 8 bits
Scan type : Progressive
Compression mode : Lossy
Bits/(Pixel*Frame) : 0.371
Stream size : 1.32 GiB (91%)
Writing library : XviD 73
Audio
ID : 1
Format : AC-3
Format/Info : Audio Coding 3
Format settings, Endianness : Big
Codec ID : 2000
Duration : 1 h 36 min
Bit rate mode : Constant
Bit rate : 192 kb/s
Channel(s) : 2 channels
Channel positions : Front: L R
Sampling rate : 48.0 kHz
Frame rate : 31.250 FPS (1536 SPF)
Bit depth : 16 bits
Compression mode : Lossy
Stream size : 133 MiB (9%)
Alignment : Split accross interleaves
Interleave, duration : 42 ms (1.00 video frame)
Interleave, preload duratio : 500 ms
Service kind : Complete Main



   Похожие торренты   Торрент   Размер 
В этой теме нет новых непрочитанных сообщений. Команда мечты / The Dream Team (1989) HDRip от Kaztorrents | P

0 | 0

749.84 МБ

В этой теме нет новых непрочитанных сообщений. Команда мечты / The Dream Team (1989) BDRip от HQCLUB | P

20 | 3

2.18 ГБ

В этой теме нет новых непрочитанных сообщений. Команда мечты / The Dream Team (1989) DVDRip-AVC от 0ptimus | P, A

63 | 12

1.98 ГБ

В этой теме нет новых непрочитанных сообщений. Команда мечты / The Dream Team (1989) DVDRip от Brazzass

12 | 5

1.32 ГБ

В этой теме нет новых непрочитанных сообщений. Команда мечты / The Dream Team (1989) BDRip-AVC от 0ptimus | P, A

43 | 3

2.86 ГБ

В этой теме нет новых непрочитанных сообщений. Команда мечты / The Dream Team (1989) BDRip 720p | P, A

5 | 0

5.48 ГБ

В этой теме нет новых непрочитанных сообщений. Команда Мечты / Les seigneurs (2012) DVD9 от New-Team | Лицензия

31 | 17

3.98 ГБ




Вы не можете начинать темы
Вы не можете отвечать на сообщения
Вы не можете редактировать свои сообщения
Вы не можете удалять свои сообщения
Вы не можете добавлять вложения

Перейти:  
Для Мосгорсуда, Роскомнадзора и рекламодателей: mosgorsud-torrent[собачка]yandex.ru
 Вход
ppkBB3cker v.2 © 2008-2014 @ PPK
[ Time : 0.086s | 19 Queries | GZIP : Off ]

Торрент трекер RUTOR.IN, Не можете зайти на rutor.org? Какой новый адрес рутор? Какое зеркало рутор? Не работает rutor.org и зеркала? Тогда наш торрент специально для вас. Rutor.in неофициальное зеркало rutor. В случае если у Вас заблокирован rutor или вдруг Вы не можете на него зайти, то Вы без труда сможете скачать бесплатно и без рекламы последние новинки кино, игр, сериалов и прочего у нас, на Rutor.in. Не нужно использовать прокси, чтобы зайти на рутор, достаточно воспользоваться нашим ресурсом. Все новые фильмы, игры, сериалы, книги и музыка за 2013 и 2014 годы через торрент бесплатно. Скачивайте фильмы в хорошем качестве, игры для пк, xbox, playstation без регистрации. У нас вы найдете новые Зарубежные сериалы и Русские сериалы 2013, 2014, 2015 годов. Оставайтесь с нами, качайте любимые фильмы, игры, сериалы, книги и музыку.
cron