img image001 image001 image001 image001 image001 image001 image001 image001 image001 image001 image001 image001 image001 image001 image001

Planets Sun Sun Sun
Статистика раздачи
Автор: Nickolas3434 | Размер: 746.12 МБ | Добавлен: 10 окт 2017
Раздают: 37    Качают: 4
Скачать торрент
Скачать торрент
Описание торрента

СообщениеДобавлено: 10 окт 2017 

Информация о фильме
Название: Побег невозможен
Оригинальное название: No Escape
Год выхода: 1994
Жанр: Фантастика, боевик, триллер, драма
Режиссер: Мартин Кэмпбелл / Martin Campbell
В ролях: Рэй Лиотта, Лэнс Хенриксен, Стюарт Уилсон, Кевин Диллон, Кевин Дж. О`Коннор, Дон Хендерсон, Иэн МакНис, Джек Шеферд, Майкл Лернер, Эрни Хадсон
О фильме :
В 2022 году начальник одной из колоний создал совершенную тюрьму будущего. У нее нет ни стен, ни надзирателей, ни камер. Однако убежать оттуда невозможно. Абсолом — затерянный остров, на котором самые опасные заключенные страны предоставлены самим себе. Навсегда отрезанные от цивилизации, они живут по законам первобытного общества. Одни уже мало чем отличаются от животных, другие еще пытаются сохранить человеческий облик. Капитан морской пехоты Джон Роббинс попал на Абсолом после того, как отказался выполнять несправедливый приказ. И он — единственный из заключенных, кто решил доказать всем, что совершенных тюрем не бывает…

Страна: США, Columbia Pictures Corporation, Pacific Western, Platinum Pictures (III)
Продолжительность: 01:53:01
Перевод: Профессиональный (многоголосый закадровый) - Видеосервис
Файл
Формат: MKV
Качество: HDTVRip-AVC
Видео: MPEG-4 AVC, 768x320, ~ 845 Кбит/с
Аудио: AAC-LC, 2 ch, ~76 Кбит/с
Общее
Уникальный идентификатор : 240652948960326655491911958018419194166 (0xB50C1272933F81E68D3DD3C1181DF936)
Полное имя : D:MOVIESNo.Escape.1994.ExKinoRay.mkv
Формат : Matroska
Версия формата : Version 2
Размер файла : 746 Мбайт
Продолжительность : 1 ч. 53 м.
Общий поток : 923 Кбит/сек
Дата кодирования : UTC 2017-10-09 23:25:53
Программа кодирования : mkvmerge v16.0.0 ('Protest') 64-bit
Библиотека кодирования : libebml v1.3.5 + libmatroska v1.4.8
Видео
Идентификатор : 1
Формат : AVC
Формат/Информация : Advanced Video Codec
Профиль формата : High@L4.1
Параметр CABAC формата : Да
Параметр RefFrames формата : 10 кадров
Идентификатор кодека : V_MPEG4/ISO/AVC
Продолжительность : 1 ч. 53 м.
Битрейт : 845 Кбит/сек
Ширина : 768 пикселей
Высота : 320 пикселей
Соотношение сторон : 2,40:1
Режим частоты кадров : Постоянный
Частота кадров : 25,000 кадров/сек
Цветовое пространство : YUV
Субдискретизация насыщенности : 4:2:0
Битовая глубина : 8 бит
Тип развёртки : Прогрессивная
Бит/(Пиксели*Кадры) : 0.138
Размер потока : 683 Мбайт (92%)
Библиотека кодирования : x264 core 152 r2851kMod ba24899
Настройки программы : cabac=1 / ref=10 / deblock=1:-3:-2 / analyse=0x3:0x113 / me=umh / subme=11 / psy=1 / fade_compensate=0.00 / psy_rd=1.00:0.18 / mixed_ref=1 / me_range=32 / chroma_me=1 / trellis=2 / 8x8dct=1 / cqm=0 / deadzone=21,11 / fast_pskip=0 / chroma_qp_offset=-3 / threads=6 / lookahead_threads=1 / sliced_threads=0 / nr=0 / decimate=0 / interlaced=0 / bluray_compat=0 / constrained_intra=0 / bframes=10 / b_pyramid=2 / b_adapt=2 / b_bias=0 / direct=3 / weightb=1 / open_gop=0 / weightp=2 / keyint=250 / keyint_min=24 / scenecut=40 / intra_refresh=0 / rc_lookahead=40 / rc=2pass / mbtree=1 / bitrate=845 / ratetol=1.0 / qcomp=0.60 / qpmin=0 / qpmax=69 / qpstep=4 / cplxblur=20.0 / qblur=0.5 / vbv_maxrate=50000 / vbv_bufsize=62500 / nal_hrd=none / filler=0 / ip_ratio=1.40 / aq=3:1.00
Default : Да
Forced : Нет
Аудио
Идентификатор : 2
Формат : AAC
Формат/Информация : Advanced Audio Codec
Профиль формата : LC
Идентификатор кодека : A_AAC
Продолжительность : 1 ч. 53 м.
Битрейт : 76,0 Кбит/сек
Каналы : 2 канала
Расположение каналов : Front: L R
Частота : 48,0 КГц
Частота кадров : 46,875 кадров/сек (1024 SPF)
Метод сжатия : С потерями
Задержка видео : 9 мс.
Размер потока : 61,4 Мбайт (8%)
Язык : Russian
Default : Да
Forced : Нет


Релиз от:



   Похожие торренты   Торрент   Размер 
В этой теме нет новых непрочитанных сообщений. Побег невозможен / No Escape (1994) DVDRip от ExKinoRay

34 | 12

1.93 ГБ

В этой теме нет новых непрочитанных сообщений. Побег невозможен / Escape from absolom (1994) HDTVRip-AVC | P, A

71 | 7

2.9 ГБ

В этой теме нет новых непрочитанных сообщений. Побег невозможен / Escape from absolom (1994) HDTVRip от NovaLan

18 | 3

2.19 ГБ

В этой теме нет новых непрочитанных сообщений. Побег невозможен / No Escape (1994) HDTVRip от Leon-masl | P, A

131 | 12

1.46 ГБ

В этой теме нет новых непрочитанных сообщений. Побег невозможен / Абсолом 2022 / No Escape (1994) DVDRip

0 | 2

1.32 ГБ

В этой теме нет новых непрочитанных сообщений. Побег из Лос-Анджелеса / Escape from L.A. (1996) BDRip-AVC от ExKinoRay

59 | 4

3.06 ГБ

В этой теме нет новых непрочитанных сообщений. Великий побег / The Great Escape (1963) DVDRip от ExKinoRay

106 | 27

2.75 ГБ




Вы не можете начинать темы
Вы не можете отвечать на сообщения
Вы не можете редактировать свои сообщения
Вы не можете удалять свои сообщения
Вы не можете добавлять вложения

Перейти:  
Для Мосгорсуда, Роскомнадзора и рекламодателей: mosgorsud-torrent[собачка]yandex.ru
 Вход
ppkBB3cker v.2 © 2008-2014 @ PPK
[ Time : 0.056s | 19 Queries | GZIP : Off ]

cron