img image001 image001 image001 image001 image001 image001 image001 image001 image001 image001 image001 image001 image001 image001 image001

Planets Sun Sun Sun
Статистика раздачи
Автор: Nickolas3434 | Размер: 745.05 МБ | Добавлен: 10 окт 2017
Раздают: 39    Качают: 8
Скачать торрент
Скачать торрент
Описание торрента

СообщениеДобавлено: 10 окт 2017 

Информация о фильме
Название: Охотники за головами
Оригинальное название: Hodejegerne
Год выхода: 2011
Жанр: триллер, драма, криминал
Режиссер: Мортен Тильдум / Morten Tyldum
В ролях: Николай Костер-Вальдау, Юлье Ольгорд, Аксель Хенни, Бор Ове, Йоахим Рафаелсен, Эйвинд Сэндер, Нильс Йорген Каалстад, Карре Хаген Сиднесс, Рейдар Серенсен
О фильме: Роджер Браун — блестящий «охотник за головами», незаменимый специалист по подбору топ-менеджеров для крупнейших фирм. Он может найти нужного человека на любую должность и его рекомендация — залог получения работы. Чтобы удержать красавицу жену, открывшую на деньги мужа картинную галерею в модном районе, Роджер давно уже живет не по средствам, и, пользуясь своим служебным положением, крадет дорогие картины у претендентов на руководящие должности.
Однажды Роджер встречает голландца Класа Граафа: идеального кандидата для фирмы специализирующейся на навигационном оборудовании и — вот удача! — владельца картины Рубенса, считавшейся утерянной во время Второй Мировой войны. Кража и последующая продажа шедевра может помочь Роджеру навсегда решить все финансовые проблемы.
Но, внезапно, «охотник за головами» сам превращается в добычу.

Страна: Норвегия, Швеция, Дания, Германия
Студия: Yellow Bird Films, ARD Degeto Film, Friland, Nordisk Film
Продолжительность: 01:40:06
Перевод: Профессиональный (полное дублирование)
Файл
Кодек: x264
Качество: HDRip-AVC
Видео: MPEG-4 AVC, 768x322 (2.40:1) at 24.000 fps, ~967 kbps
Аудио: AAC-LC, 2 ch, 48 kHz, 72 kbps
Субтитры: русские (полные)
Семпл
General
Unique ID : 231540309219391878893845949982245221329 (0xAE310A9ED0BE03F7AAC127A9ED0D73D1)
Complete name : C:UsersDownloadsHodejegerne.2011.HDRip-AVC.mkv
Format : Matroska
Format version : Version 4 / Version 2
File size : 745 MiB
Duration : 1 h 40 min
Overall bit rate : 1 041 kb/s
Encoded date : UTC 2017-10-10 06:52:48
Writing application : mkvmerge v9.6.0 ('Slave To Your Mind') 64bit
Writing library : libebml v1.3.4 + libmatroska v1.4.5
Video
ID : 1
Format : AVC
Format/Info : Advanced Video Codec
Format profile : High@L4.1
Format settings : CABAC / 8 Ref Frames
Format settings, CABAC : Yes
Format settings, RefFrames : 8 frames
Codec ID : V_MPEG4/ISO/AVC
Duration : 1 h 40 min
Bit rate : 967 kb/s
Width : 768 pixels
Height : 322 pixels
Display aspect ratio : 2.40:1
Frame rate mode : Constant
Frame rate : 24.000 FPS
Color space : YUV
Chroma subsampling : 4:2:0
Bit depth : 8 bits
Scan type : Progressive
Bits/(Pixel*Frame) : 0.163
Stream size : 692 MiB (93%)
Writing library : x264 core 146 r2538 121396c
Encoding settings : cabac=1 / ref=8 / deblock=1:0:0 / analyse=0x3:0x113 / me=umh / subme=11 / psy=1 / psy_rd=1.00:0.00 / mixed_ref=1 / me_range=32 / chroma_me=1 / trellis=2 / 8x8dct=1 / cqm=0 / deadzone=21,11 / fast_pskip=0 / chroma_qp_offset=-2 / threads=6 / lookahead_threads=1 / sliced_threads=0 / nr=0 / decimate=0 / interlaced=0 / bluray_compat=0 / constrained_intra=0 / bframes=10 / b_pyramid=2 / b_adapt=2 / b_bias=0 / direct=3 / weightb=1 / open_gop=0 / weightp=2 / keyint=240 / keyint_min=23 / scenecut=40 / intra_refresh=0 / rc_lookahead=40 / rc=2pass / mbtree=1 / bitrate=967 / ratetol=1.0 / qcomp=0.60 / qpmin=0 / qpmax=69 / qpstep=4 / cplxblur=20.0 / qblur=0.5 / vbv_maxrate=50000 / vbv_bufsize=62500 / nal_hrd=none / filler=0 / ip_ratio=1.40 / aq=3:0.90
Default : Yes
Forced : No
Audio
ID : 2
Format : AAC
Format/Info : Advanced Audio Codec
Format profile : LC
Codec ID : A_AAC-2
Duration : 1 h 40 min
Bit rate : 72.0 kb/s
Channel(s) : 2 channels
Channel positions : Front: L R
Sampling rate : 48.0 kHz
Frame rate : 46.875 FPS (1024 SPF)
Compression mode : Lossy
Delay relative to video : 9 ms
Stream size : 51.5 MiB (7%)
Default : Yes
Forced : No
Text
ID : 3
Format : UTF-8
Codec ID : S_TEXT/UTF8
Codec ID/Info : UTF-8 Plain Text
Duration : 1 h 36 min
Bit rate : 68 b/s
Count of elements : 876
Stream size : 48.4 KiB (0%)
Title : Full
Language : Russian
Default : Yes
Forced : No



   Похожие торренты   Торрент   Размер 
В этой теме нет новых непрочитанных сообщений. Охотники за головами / Hodejegerne (2011) HDRip-AVC

9 | 4

1.09 ГБ

В этой теме нет новых непрочитанных сообщений. Охотники за головами / Hodejegerne (2011) HDRip

15 | 2

741.62 МБ

В этой теме нет новых непрочитанных сообщений. Охотники за головами / Hodejegerne / Headhunters (2011) HDRip от HQ Underverse

1 | 2

2.19 ГБ

В этой теме нет новых непрочитанных сообщений. Охотники за головами / Headhunters / Hodejegerne (2011) HDRip от Youtracker

46 | 6

747.44 МБ

В этой теме нет новых непрочитанных сообщений. Охотники за головами / Hodejegerne (2011) HDRip от Scarabey | Лицензия

399 | 12

1.38 ГБ

В этой теме нет новых непрочитанных сообщений. Охотники за головами / Hodejegerne (2011) HDRip от Scarabey | Лицензия

20 | 3

741.61 МБ

В этой теме нет новых непрочитанных сообщений. Охотники за головами / Headhunters / Hodejegerne (2011) HDRip от Generalfilm | КПК

10 | 2

343.53 МБ




Вы не можете начинать темы
Вы не можете отвечать на сообщения
Вы не можете редактировать свои сообщения
Вы не можете удалять свои сообщения
Вы не можете добавлять вложения

Перейти:  
Для Мосгорсуда, Роскомнадзора и рекламодателей: mosgorsud-torrent[собачка]yandex.ru
 Вход
ppkBB3cker v.2 © 2008-2014 @ PPK
[ Time : 0.049s | 19 Queries | GZIP : Off ]

cron