img image001 image001 image001 image001 image001 image001 image001 image001 image001 image001 image001 image001 image001 image001 image001

Planets Sun Sun Sun
Статистика раздачи
Автор: Nickolas3434 | Размер: 5.99 ГБ | Добавлен: 10 окт 2017
Раздают: 18    Качают: 0
Скачать торрент
Скачать торрент
Описание торрента

СообщениеДобавлено: 10 окт 2017 

Информация о фильме
Название: Залечь на дно в Брюгге
Оригинальное название: In Bruges
Год выхода: 2008
Жанр: драма, комедия, криминал
Режиссер: Мартин МакДона
В ролях: Колин Фаррелл, Рэйф Файнс, Брендан Глисон, Клеманс Поэзи, Джордан Прентис,
Элизабет Беррингтон, Руди Бломм, Оливер Бонжур, Марк Донован, Энн Элсли
О фильме:
После того, как профессиональные убийцы Рэй и Кен запороли в Лондоне задание,
их босс Гарри приказывает им отправиться в Брюгге и не высовываться.
Оказавшись в старинном бельгийском городке, Рэй чувствует себя туристом,
флиртует, наслаждается жизнью и неожиданно свалившимся отпуском. Но вдруг
Рэй понимает, что Кену приказали убрать своего напарника, то есть… его самого.

Страна: США, Великобритания
Студия: Blueprint Pictures, Film4, Focus Features, Scion Films Limited
Продолжительность: 01:46:50
Перевод: Дублированный, профессиональный многоголосый, авторский одноголосый
Файл
Кодек: MKV
Качество: BDRip 720p | BDRemux 1080p |
Видео: AVC, 1280x544 (2.40:1), 24.000 fps, 4 514 Kbps (0.270 bit/pixel)
Аудио #1: AC-3, 48.0 KHz, 6 ch, 448 Kbps, CBR (Russian) - дублированный
Аудио #2: AC-3, 48.0 KHz, 6 ch, 448 Kbps, CBR (Russian) - многоголосый (Кубик в Кубе совместно с Ozz Tv)
Аудио #3: AC-3, 48.0 KHz, 6 ch, 384 Kbps, CBR (Russian) - авторский А.Гаврилов
Аудио #4: AC-3, 48.0 KHz, 6 ch, 448 Kbps, CBR (Russian) - авторский В.Завгородний
Аудио #5: AC-3, 48.0 KHz, 6 ch, 448 Kbps, CBR (Russian) - авторский А.Карповский
Аудио #6: AC-3, 48.0 KHz, 6 ch, 448 Kbps, CBR (Russian) - авторский А.Поздняков
Аудио #7: AC-3, 48.0 KHz, 6 ch, 448 Kbps, CBR (Russian) - авторский Ю.Немахов
Аудио #8: AC-3, 48.0 KHz, 6 ch, 448 Kbps, CBR (English) - оригинальная звуковая дорожка
Субтитры: Русские, английские
Скриншоты:

Формат : Matroska
Версия формата : Version 2
Размер файла : 5,99 Гбайт
Продолжительность : 1 ч. 46 м.
Общий поток : 8032 Кбит/сек
Название фильма : Залечь на дно в Брюгге | In Bruges [2008]
Дата кодирования : UTC 2017-10-10 09:39:43
Программа кодирования : mkvmerge v5.3.0 ('I could have danced') built on Feb 9 2012 10:38:07
Библиотека кодирования : libebml v1.2.3 + libmatroska v1.3.0
Обложка : Yes
Attachments : cover.jpg
Видео
Идентификатор : 1
Формат : AVC
Формат/Информация : Advanced Video Codec
Профиль формата : High@L4.1
Параметр CABAC формата : Да
Параметр ReFrames формата : 12 кадров
Идентификатор кодека : V_MPEG4/ISO/AVC
Продолжительность : 1 ч. 46 м.
Битрейт : 4514 Кбит/сек
Ширина : 1280 пикселей
Высота : 544 пикселя
Соотношение сторон : 2,35:1
Режим частоты кадров : Постоянный
Частота кадров : 24,000 кадра/сек
Цветовое пространство : YUV
Субдискретизация насыщенности : 4:2:0
Битовая глубина : 8 бит
Тип развёртки : Прогрессивная
Бит/(Пиксели*Кадры) : 0.270
Размер потока : 3,25 Гбайт (54%)
Библиотека кодирования : x264 core 146 r2538 121396c
Настройки программы : cabac=1 / ref=12 / deblock=1:-3:-3 / analyse=0x3:0x133 / me=umh / subme=11 / psy=1 / psy_rd=1.00:0.00 / mixed_ref=1 / me_range=32 / chroma_me=1 / trellis=2 / 8x8dct=1 / cqm=0 / deadzone=21,11 / fast_pskip=0 / chroma_qp_offset=-2 / threads=12 / lookahead_threads=3 / sliced_threads=0 / nr=0 / decimate=0 / interlaced=0 / bluray_compat=0 / constrained_intra=0 / bframes=11 / b_pyramid=2 / b_adapt=2 / b_bias=0 / direct=3 / weightb=1 / open_gop=0 / weightp=2 / keyint=240 / keyint_min=23 / scenecut=40 / intra_refresh=0 / rc=2pass / mbtree=0 / bitrate=4514 / ratetol=1.0 / qcomp=0.60 / qpmin=0 / qpmax=69 / qpstep=4 / cplxblur=20.0 / qblur=0.5 / ip_ratio=1.40 / pb_ratio=1.30 / aq=1:0.70
Язык : English
Default : Да
Forced : Нет
Аудио #1
Идентификатор : 2
Формат : AC-3
Формат/Информация : Audio Coding 3
Расширение режима : CM (complete main)
Параметр Endianness формата : Big
Идентификатор кодека : A_AC3
Продолжительность : 1 ч. 46 м.
Вид битрейта : Постоянный
Битрейт : 448 Кбит/сек
Каналы : 6 каналов
Расположение каналов : Front: L C R, Side: L R, LFE
Частота : 48,0 КГц
Частота кадров : 31,250 кадров/сек (1536 spf)
Битовая глубина : 16 бит
Метод сжатия : С потерями
Размер потока : 342 Мбайт (6%)
Заголовок : Дублированный
Язык : Russian
Default : Да
Forced : Нет
Аудио #2
Идентификатор : 3
Формат : AC-3
Формат/Информация : Audio Coding 3
Расширение режима : CM (complete main)
Параметр Endianness формата : Big
Идентификатор кодека : A_AC3
Продолжительность : 1 ч. 46 м.
Вид битрейта : Постоянный
Битрейт : 448 Кбит/сек
Каналы : 6 каналов
Расположение каналов : Front: L C R, Side: L R, LFE
Частота : 48,0 КГц
Частота кадров : 31,250 кадров/сек (1536 spf)
Битовая глубина : 16 бит
Метод сжатия : С потерями
Задержка видео : 20 мс.
Размер потока : 342 Мбайт (6%)
Заголовок : Многоголосый (Кубик в Кубе с Ozz Tv)
Язык : Russian
Default : Нет
Forced : Нет
Аудио #3
Идентификатор : 4
Формат : AC-3
Формат/Информация : Audio Coding 3
Расширение режима : CM (complete main)
Параметр Endianness формата : Big
Идентификатор кодека : A_AC3
Продолжительность : 1 ч. 46 м.
Вид битрейта : Постоянный
Битрейт : 384 Кбит/сек
Каналы : 6 каналов
Расположение каналов : Front: L C R, Side: L R, LFE
Частота : 48,0 КГц
Частота кадров : 31,250 кадров/сек (1536 spf)
Битовая глубина : 16 бит
Метод сжатия : С потерями
Задержка видео : 20 мс.
Размер потока : 293 Мбайт (5%)
Заголовок : Авторский А.Гаврилов
Язык : Russian
Default : Нет
Forced : Нет
Аудио #4
Идентификатор : 5
Формат : AC-3
Формат/Информация : Audio Coding 3
Расширение режима : CM (complete main)
Параметр Endianness формата : Big
Идентификатор кодека : A_AC3
Продолжительность : 1 ч. 46 м.
Вид битрейта : Постоянный
Битрейт : 448 Кбит/сек
Каналы : 6 каналов
Расположение каналов : Front: L C R, Side: L R, LFE
Частота : 48,0 КГц
Частота кадров : 31,250 кадров/сек (1536 spf)
Битовая глубина : 16 бит
Метод сжатия : С потерями
Задержка видео : 20 мс.
Размер потока : 342 Мбайт (6%)
Заголовок : Авторский В.Завгородний
Язык : Russian
Default : Нет
Forced : Нет
Аудио #5
Идентификатор : 6
Формат : AC-3
Формат/Информация : Audio Coding 3
Расширение режима : CM (complete main)
Параметр Endianness формата : Big
Идентификатор кодека : A_AC3
Продолжительность : 1 ч. 46 м.
Вид битрейта : Постоянный
Битрейт : 448 Кбит/сек
Каналы : 6 каналов
Расположение каналов : Front: L C R, Side: L R, LFE
Частота : 48,0 КГц
Частота кадров : 31,250 кадров/сек (1536 spf)
Битовая глубина : 16 бит
Метод сжатия : С потерями
Задержка видео : 20 мс.
Размер потока : 342 Мбайт (6%)
Заголовок : Авторский А.Карповский
Язык : Russian
Default : Нет
Forced : Нет
Аудио #6
Идентификатор : 7
Формат : AC-3
Формат/Информация : Audio Coding 3
Расширение режима : CM (complete main)
Параметр Endianness формата : Big
Идентификатор кодека : A_AC3
Продолжительность : 1 ч. 46 м.
Вид битрейта : Постоянный
Битрейт : 448 Кбит/сек
Каналы : 6 каналов
Расположение каналов : Front: L C R, Side: L R, LFE
Частота : 48,0 КГц
Частота кадров : 31,250 кадров/сек (1536 spf)
Битовая глубина : 16 бит
Метод сжатия : С потерями
Задержка видео : 20 мс.
Размер потока : 342 Мбайт (6%)
Заголовок : Авторский А.Поздняков
Язык : Russian
Default : Нет
Forced : Нет
Аудио #7
Идентификатор : 8
Формат : AC-3
Формат/Информация : Audio Coding 3
Расширение режима : CM (complete main)
Параметр Endianness формата : Big
Идентификатор кодека : A_AC3
Продолжительность : 1 ч. 46 м.
Вид битрейта : Постоянный
Битрейт : 448 Кбит/сек
Каналы : 6 каналов
Расположение каналов : Front: L C R, Side: L R, LFE
Частота : 48,0 КГц
Частота кадров : 31,250 кадров/сек (1536 spf)
Битовая глубина : 16 бит
Метод сжатия : С потерями
Задержка видео : 20 мс.
Размер потока : 342 Мбайт (6%)
Заголовок : Авторский Ю.Немахов
Язык : Russian
Default : Нет
Forced : Нет
Аудио #8
Идентификатор : 9
Формат : AC-3
Формат/Информация : Audio Coding 3
Расширение режима : CM (complete main)
Параметр Endianness формата : Big
Идентификатор кодека : A_AC3
Продолжительность : 1 ч. 46 м.
Вид битрейта : Постоянный
Битрейт : 448 Кбит/сек
Каналы : 6 каналов
Расположение каналов : Front: L C R, Side: L R, LFE
Частота : 48,0 КГц
Частота кадров : 31,250 кадров/сек (1536 spf)
Битовая глубина : 16 бит
Метод сжатия : С потерями
Размер потока : 342 Мбайт (6%)
Язык : English
Default : Нет
Forced : Нет
Текст #1
Идентификатор : 10
Формат : UTF-8
Идентификатор кодека : S_TEXT/UTF8
Идентификатор кодека/Информация : UTF-8 Plain Text
Заголовок : R5 [Paradise]
Язык : Russian
Default : Нет
Forced : Нет
Текст #2
Идентификатор : 11
Формат : UTF-8
Идентификатор кодека : S_TEXT/UTF8
Идентификатор кодека/Информация : UTF-8 Plain Text
Заголовок : M.Calavera
Язык : Russian
Default : Нет
Forced : Нет
Текст #3
Идентификатор : 12
Формат : UTF-8
Идентификатор кодека : S_TEXT/UTF8
Идентификатор кодека/Информация : UTF-8 Plain Text
Заголовок : Corvin
Язык : Russian
Default : Нет
Forced : Нет
Текст #4
Идентификатор : 13
Формат : UTF-8
Идентификатор кодека : S_TEXT/UTF8
Идентификатор кодека/Информация : UTF-8 Plain Text
Заголовок : hosco [на основе R5]
Язык : Russian
Default : Нет
Forced : Нет
Текст #5
Идентификатор : 14
Формат : UTF-8
Идентификатор кодека : S_TEXT/UTF8
Идентификатор кодека/Информация : UTF-8 Plain Text
Заголовок : Егор Мотыгин
Язык : Russian
Default : Нет
Forced : Нет
Текст #6
Идентификатор : 15
Формат : UTF-8
Идентификатор кодека : S_TEXT/UTF8
Идентификатор кодека/Информация : UTF-8 Plain Text
Заголовок : Вадим «Atrokkus» Пахуткин
Язык : Russian
Default : Нет
Forced : Нет
Текст #7
Идентификатор : 16
Формат : UTF-8
Идентификатор кодека : S_TEXT/UTF8
Идентификатор кодека/Информация : UTF-8 Plain Text
Заголовок : Константин Поздняков
Язык : Russian
Default : Нет
Forced : Нет
Текст #8
Идентификатор : 17
Формат : UTF-8
Идентификатор кодека : S_TEXT/UTF8
Идентификатор кодека/Информация : UTF-8 Plain Text
Заголовок : Renks
Язык : Russian
Default : Нет
Forced : Нет
Текст #9
Идентификатор : 18
Формат : UTF-8
Идентификатор кодека : S_TEXT/UTF8
Идентификатор кодека/Информация : UTF-8 Plain Text
Заголовок : sunny-sko [«авторская интерпретация»]
Язык : Russian
Default : Нет
Forced : Нет
Текст #10
Идентификатор : 19
Формат : UTF-8
Идентификатор кодека : S_TEXT/UTF8
Идентификатор кодека/Информация : UTF-8 Plain Text
Заголовок : ENG
Язык : English
Default : Нет
Forced : Нет
Текст #11
Идентификатор : 20
Формат : UTF-8
Идентификатор кодека : S_TEXT/UTF8
Идентификатор кодека/Информация : UTF-8 Plain Text
Заголовок : SDH
Язык : English
Default : Нет
Forced : Нет
Меню
00:00:00.000 : en:Medieval Town
00:04:48.875 : en:Terrible Tourist
00:10:10.041 : en:Seeing the Sights
00:15:29.790 : en:Message Received
00:20:28.998 : en:Holy Blood
00:25:27.248 : en:Purgatory
00:30:42.580 : en:My Hometown
00:36:55.788 : en:Like a Fairy Tale
00:43:28.329 : en:Someone Nice
00:46:59.954 : en:Drowning Sorrows
00:50:43.203 : en:Choose a Side
00:54:29.995 : en:Suicidal
01:00:27.578 : en:Keep on Moving
01:07:21.660 : en:Back to Bruges
01:12:32.243 : en:Capacity to Change
01:17:49.076 : en:In Your Debt
01:23:56.534 : en:Last Chance
01:29:19.825 : en:Will to Live
01:36:45.657 : en:Principles
01:41:17.990 : en:End Titles

Релиз: Группа в ВК &



   Похожие торренты   Торрент   Размер 
В этой теме нет новых непрочитанных сообщений. Залечь на дно в Брюгге / In Bruges (2008) BDRip 720p

31 | 2

6.64 ГБ

В этой теме нет новых непрочитанных сообщений. Залечь на дно в Брюгге / In Bruges (2008) BDRip 720p от Leonardo and Scarabey

274 | 45

3.28 ГБ

В этой теме нет новых непрочитанных сообщений. Залечь на дно в Брюгге / Однажды в Брюгге / In Bruges (2008) HDRip от Scarabey

189 | 8

744.93 МБ

В этой теме нет новых непрочитанных сообщений. Залечь на дно в Брюгге / Однажды в Брюгге / In Bruges (2008) HDRip от Scarabey

412 | 17

1.45 ГБ

В этой теме нет новых непрочитанных сообщений. Залечь на дно в Брюгге / In Bruges (2008) BDRip 1080p

75 | 8

7.76 ГБ

В этой теме нет новых непрочитанных сообщений. Залечь на дно в Брюгге / In Bruges (2008) BDRip-AVC от ExKinoRay | D

40 | 0

745.34 МБ

В этой теме нет новых непрочитанных сообщений. Залечь на дно в Брюгге / In Bruges (2008) BDRip от HQCLUB

83 | 5

2.18 ГБ




Вы не можете начинать темы
Вы не можете отвечать на сообщения
Вы не можете редактировать свои сообщения
Вы не можете удалять свои сообщения
Вы не можете добавлять вложения

Перейти:  
Для Мосгорсуда, Роскомнадзора и рекламодателей: mosgorsud-torrent[собачка]yandex.ru
 Вход
ppkBB3cker v.2 © 2008-2014 @ PPK
[ Time : 0.049s | 19 Queries | GZIP : Off ]

cron