img image001 image001 image001 image001 image001 image001 image001 image001 image001 image001 image001 image001 image001 image001 image001

Planets Sun Sun Sun
Статистика раздачи
Автор: Nickolas3434 | Размер: 746.6 МБ | Добавлен: 10 окт 2017
Раздают: 29    Качают: 9
Скачать торрент
Скачать торрент
Описание торрента

СообщениеДобавлено: 10 окт 2017 

Информация о фильме
Название: Пророчество 2
Оригинальное название: The Prophecy II
Год выхода: 1998
Жанр: ужасы, фэнтези, триллер
Режиссер: Грег Спенс / Greg Spence
В ролях: Кристофер Уокен, Расселл Вонг, Дженнифер Билз, Бриттэни Мерфи, Гленн Дэнзиг, Эрик Робертс
О фильме :
Война за небеса далека от окончания. Габриэль, самый могущественный из ангелов господних, возвращается на землю. Он не может похвастаться тем, что его положение достаточно прочно, и что армия ангелов ему беспрекословно подчиняется. Его страшная миссия — разрушить и уничтожить самое ценное творение Господа — человечество.

Страна: США
Продолжительность: 01:23:46
Перевод: Профессиональный (многоголосый закадровый)
Файл
Формат: MKV
Качество: HDRip-AVC
Видео: MPEG-4 AVC, 752x408, ~ 1168 Кбит/с
Аудио: AAC-LC, 2 ch, ~76 Кбит/с
Общее
Уникальный идентификатор : 181583860580291448332300349155386970932 (0x889BC78A18250E3A8A9A9E5A7C1DD334)
Полное имя : D:MOVIESThe Prophecy II.1998.ExKinoRay.mkv
Формат : Matroska
Версия формата : Version 4 / Version 2
Размер файла : 747 Мбайт
Продолжительность : 1 ч. 23 м.
Общий поток : 1246 Кбит/сек
Дата кодирования : UTC 2017-10-10 10:35:46
Программа кодирования : mkvmerge v15.0.0 ('Duel with the Devil') 64-bit
Библиотека кодирования : libebml v1.3.5 + libmatroska v1.4.5
Видео
Идентификатор : 1
Формат : AVC
Формат/Информация : Advanced Video Codec
Профиль формата : High@L4.1
Параметр CABAC формата : Да
Параметр RefFrames формата : 10 кадров
Идентификатор кодека : V_MPEG4/ISO/AVC
Продолжительность : 1 ч. 23 м.
Битрейт : 1168 Кбит/сек
Ширина : 752 пикселя
Высота : 408 пикселей
Соотношение сторон : 1,85:1
Режим частоты кадров : Постоянный
Частота кадров : 24,000 кадра/сек
Цветовое пространство : YUV
Субдискретизация насыщенности : 4:2:0
Битовая глубина : 8 бит
Тип развёртки : Прогрессивная
Бит/(Пиксели*Кадры) : 0.159
Размер потока : 700 Мбайт (94%)
Библиотека кодирования : x264 core 152 r2851kMod ba24899
Настройки программы : cabac=1 / ref=10 / deblock=1:-3:-2 / analyse=0x3:0x113 / me=umh / subme=11 / psy=1 / fade_compensate=0.00 / psy_rd=1.00:0.05 / mixed_ref=1 / me_range=32 / chroma_me=1 / trellis=2 / 8x8dct=1 / cqm=0 / deadzone=21,11 / fast_pskip=0 / chroma_qp_offset=-3 / threads=6 / lookahead_threads=1 / sliced_threads=0 / nr=0 / decimate=0 / interlaced=0 / bluray_compat=0 / constrained_intra=0 / bframes=10 / b_pyramid=2 / b_adapt=2 / b_bias=0 / direct=3 / weightb=1 / open_gop=0 / weightp=2 / keyint=240 / keyint_min=23 / scenecut=40 / intra_refresh=0 / rc_lookahead=40 / rc=2pass / mbtree=1 / bitrate=1168 / ratetol=1.0 / qcomp=0.60 / qpmin=0 / qpmax=69 / qpstep=4 / cplxblur=20.0 / qblur=0.5 / vbv_maxrate=50000 / vbv_bufsize=62500 / nal_hrd=none / filler=0 / ip_ratio=1.40 / aq=3:1.00
Default : Да
Forced : Нет
Аудио
Идентификатор : 2
Формат : AAC
Формат/Информация : Advanced Audio Codec
Профиль формата : LC
Идентификатор кодека : A_AAC
Продолжительность : 1 ч. 23 м.
Битрейт : 76,0 Кбит/сек
Каналы : 2 канала
Расположение каналов : Front: L R
Частота : 48,0 КГц
Частота кадров : 46,875 кадров/сек (1024 SPF)
Метод сжатия : С потерями
Задержка видео : 9 мс.
Размер потока : 45,5 Мбайт (6%)
Язык : Russian
Default : Да
Forced : Нет
Текст #1
Идентификатор : 3
Формат : UTF-8
Идентификатор кодека : S_TEXT/UTF8
Идентификатор кодека/Информация : UTF-8 Plain Text
Продолжительность : 1 ч. 17 м.
Битрейт : 47 бит/сек
ElementCount : 619
Размер потока : 27,0 Кбайт (0%)
Заголовок : Русские
Язык : Russian
Default : Нет
Forced : Нет
Текст #2
Идентификатор : 4
Формат : UTF-8
Идентификатор кодека : S_TEXT/UTF8
Идентификатор кодека/Информация : UTF-8 Plain Text
Продолжительность : 1 ч. 17 м.
Битрейт : 38 бит/сек
ElementCount : 680
Размер потока : 21,9 Кбайт (0%)
Заголовок : English
Язык : English
Default : Нет
Forced : Нет
Меню
00:00:00.000 : en:00:00:00.000
00:03:17.250 : en:00:03:17.250
00:05:48.832 : en:00:05:48.832
00:10:40.707 : en:00:10:40.707
00:17:46.583 : en:00:17:46.583
00:23:15.708 : en:00:23:15.708
00:28:27.500 : en:00:28:27.500
00:33:53.000 : en:00:33:53.000
00:38:17.166 : en:00:38:17.166
00:45:24.500 : en:00:45:24.500
00:51:11.375 : en:00:51:11.375
00:57:08.333 : en:00:57:08.333
01:03:24.791 : en:01:03:24.791
01:09:56.875 : en:01:09:56.875
01:17:04.000 : en:01:17:04.000



Релиз от:



   Похожие торренты   Торрент   Размер 
В этой теме нет новых непрочитанных сообщений. Пророчество 2 / The Prophecy II (1998) HDRip | P

5 | 2

1.46 ГБ

В этой теме нет новых непрочитанных сообщений. Пророчество 2 / The Prophecy II (1998) DVDRip

33 | 5

1.45 ГБ

В этой теме нет новых непрочитанных сообщений. Пророчество 2 / The Prophecy II (1998) BDRip 1080p | P

4 | 4

8.36 ГБ

В этой теме нет новых непрочитанных сообщений. Пророчество 2 / The Prophecy II (1998) BDRip 720p | P

5 | 3

3.4 ГБ

В этой теме нет новых непрочитанных сообщений. Пророчество 2 / The Prophecy II (1998) BDRip от HQCLUB

174 | 45

1.45 ГБ

В этой теме нет новых непрочитанных сообщений. Пророчество о судном дне / Doomsday Prophecy (2011) BDRip-AVC от ExKinoRay

11 | 6

2.02 ГБ

В этой теме нет новых непрочитанных сообщений. Пророчество / The Prophecy (1995) HDRip от Leon-masl

42 | 4

1.46 ГБ




Вы не можете начинать темы
Вы не можете отвечать на сообщения
Вы не можете редактировать свои сообщения
Вы не можете удалять свои сообщения
Вы не можете добавлять вложения

Перейти:  
Для Мосгорсуда, Роскомнадзора и рекламодателей: mosgorsud-torrent[собачка]yandex.ru
 Вход
ppkBB3cker v.2 © 2008-2014 @ PPK
[ Time : 0.048s | 19 Queries | GZIP : Off ]

cron