img image001 image001 image001 image001 image001 image001 image001 image001 image001 image001 image001 image001 image001 image001 image001

Planets Sun Sun Sun
Статистика раздачи
Автор: Nickolas3434 | Размер: 2.88 ГБ | Добавлен: 10 окт 2017
Раздают: 231    Качают: 5
Скачать торрент
Скачать торрент
Описание торрента

СообщениеДобавлено: 10 окт 2017 



Наша группа ВКонтакте
Присоединяйтесь!

Человек-паук: Возвращение домой
Spider-Man: Homecoming
«Homework can wait. The city can't»


Страна: США
Жанр: фантастика, боевик, приключения
Год выпуска: 2017
Продолжительность: 02:12:31
Перевод: Профессиональный (полное дублирование) [iTunes]
Субтитры: русские (форсированные, полные), украинские (форсированные, полные), английские (форсированные, полные, SDH, SDH цветные)
Оригинальная аудиодорожка: английский
Режиссер: Джон Уоттс / Jon Watts
В ролях: Том Холланд, Роберт Дауни мл., Майкл Китон, Мариса Томей, Джон Фавро, Джейкоб Баталон, Зендея, Лора Хэрриер, Тони Револори, Дональд Гловер, Гвинет Пэлтроу, Боким Вудбайн
Описание:
После исторической встречи с командой Мстителей Питер Паркер возвращается домой, стараясь зажить обычной жизнью под опекой своей тёти Мэй. Но теперь за Питером приглядывает ещё кое-что... Тони Старк видел Человека-Паука в деле и должен стать его наставником. Когда новый злодей Стервятник угрожает уничтожить всё, что дорого Питеру, приходит время доказать всем, что такое настоящий супергерой.

Релиз:
Автор рипа: stalkerok
Сэмпл
Качество видео: BDRip-AVC [Spider-Man: Homecoming (2017) BD-Remux - BLUEBIRD]
Формат видео: MKV
Видео кодек: AVC
Аудио кодек: AC3
Видео: 2251 Кбит/сек, 1152*482 (2,40:1), в 23,976 (24000/1001) кадра/сек, AVC
Аудио #1: русский, 384 Кбит/сек, 48,0 КГц, 6 каналов, AC-3
Аудио #2: английский, 448 Кбит/сек, 48,0 КГц, 6 каналов, AC-3
Навигация по главам: есть

x264 [info]: frame I:1794 Avg QP:16.93 size: 47574
x264 [info]: frame P:45779 Avg QP:19.34 size: 16080
x264 [info]: frame B:144427 Avg QP:21.03 size: 5238
Общее
Уникальный идентификатор : 207316813463939940227535615766691196248 (0x9BF7C4122FEB9D70AA062088F9E62D58)
Полное имя : M:!Rips2017Spider-Man HomecomingBDSpider-Man.Homecoming.2017.BDRip-AVC.RUS.ENG..stalkerok.new-team.mkv
Формат : Matroska
Версия формата : Version 4 / Version 2
Размер файла : 2,88 Гбайт
Продолжительность : 2 ч. 13 м.
Общий поток : 3086 Кбит/сек
Название фильма : Spider-Man: Homecoming (2017) (Rip by stalkerok)
Дата кодирования : UTC 2017-10-10 10:17:53
Программа кодирования : mkvmerge v8.6.1 ('Flying') 64bit
Библиотека кодирования : libebml v1.3.3 + libmatroska v1.4.4
Видео
Идентификатор : 1
Формат : AVC
Формат/Информация : Advanced Video Codec
Профиль формата : High@L4.1
Параметр CABAC формата : Да
Параметр ReFrames формата : 13 кадров
Идентификатор кодека : V_MPEG4/ISO/AVC
Продолжительность : 2 ч. 13 м.
Битрейт : 2251 Кбит/сек
Ширина : 1152 пикселя
Высота : 482 пикселя
Соотношение сторон : 2,40:1
Режим частоты кадров : Постоянный
Частота кадров : 23,976 (24000/1001) кадра/сек
Цветовое пространство : YUV
Субдискретизация насыщенности : 4:2:0
Битовая глубина : 8 бит
Тип развёртки : Прогрессивная
Бит/(Пиксели*Кадры) : 0.169
Размер потока : 2,10 Гбайт (73%)
Заголовок : Spider-Man: Homecoming (2017) (Rip by stalkerok)
Библиотека кодирования : x264 core 150 r2833kMod df79067
Настройки программы : cabac=1 / ref=13 / deblock=1:-3:-2 / analyse=0x3:0x133 / me=umh / subme=11 / psy=1 / fade_compensate=0.00 / psy_rd=1.00:0.00 / mixed_ref=1 / me_range=32 / chroma_me=1 / trellis=2 / 8x8dct=1 / cqm=0 / deadzone=21,11 / fast_pskip=0 / chroma_qp_offset=-2 / threads=12 / lookahead_threads=3 / sliced_threads=0 / nr=0 / decimate=1 / interlaced=0 / bluray_compat=0 / constrained_intra=0 / bframes=13 / b_pyramid=2 / b_adapt=2 / b_bias=0 / direct=3 / weightb=1 / open_gop=0 / weightp=2 / keyint=240 / keyint_min=23 / scenecut=40 / intra_refresh=0 / rc_lookahead=60 / rc=crf / mbtree=0 / crf=17.8000 / qcomp=0.65 / qpmin=0 / qpmax=69 / qpstep=4 / vbv_maxrate=50000 / vbv_bufsize=62500 / crf_max=0.0 / nal_hrd=none / filler=0 / ip_ratio=1.40 / pb_ratio=1.30 / aq=3:0.80 / zones=176851,179946,q=32/181238,191999,q=32
Default : Да
Forced : Нет
Аудио #1
Идентификатор : 2
Формат : AC-3
Формат/Информация : Audio Coding 3
Расширение режима : CM (complete main)
Параметр Endianness формата : Big
Идентификатор кодека : A_AC3
Продолжительность : 2 ч. 13 м.
Вид битрейта : Постоянный
Битрейт : 384 Кбит/сек
Каналы : 6 каналов
Расположение каналов : Front: L C R, Side: L R, LFE
Частота : 48,0 КГц
Частота кадров : 31,250 кадров/сек (1536 spf)
Метод сжатия : С потерями
Размер потока : 367 Мбайт (12%)
Язык : Russian
Default : Да
Forced : Нет
Аудио #2
Идентификатор : 3
Формат : AC-3
Формат/Информация : Audio Coding 3
Расширение режима : CM (complete main)
Параметр Endianness формата : Big
Идентификатор кодека : A_AC3
Продолжительность : 2 ч. 13 м.
Вид битрейта : Постоянный
Битрейт : 448 Кбит/сек
Каналы : 6 каналов
Расположение каналов : Front: L C R, Side: L R, LFE
Частота : 48,0 КГц
Частота кадров : 31,250 кадров/сек (1536 spf)
Метод сжатия : С потерями
Размер потока : 428 Мбайт (15%)
Язык : English
Default : Нет
Forced : Нет
Текст #1
Идентификатор : 4
Формат : UTF-8
Идентификатор кодека : S_TEXT/UTF8
Идентификатор кодека/Информация : UTF-8 Plain Text
Продолжительность : 2 ч. 9 м.
Битрейт : 1 бит/сек
Count of elements : 39
Размер потока : 1,82 Кбайт (0%)
Заголовок : Форсированные (вер. Ash61)
Язык : Russian
Default : Да
Forced : Нет
Текст #2
Идентификатор : 5
Формат : UTF-8
Идентификатор кодека : S_TEXT/UTF8
Идентификатор кодека/Информация : UTF-8 Plain Text
Продолжительность : 2 ч. 12 м.
Битрейт : 104 бит/сек
Count of elements : 1826
Размер потока : 102 Кбайт (0%)
Язык : Russian
Default : Нет
Forced : Нет
Текст #3
Идентификатор : 6
Формат : UTF-8
Идентификатор кодека : S_TEXT/UTF8
Идентификатор кодека/Информация : UTF-8 Plain Text
Продолжительность : 2 ч. 0 м.
Битрейт : 1 бит/сек
Count of elements : 26
Размер потока : 1,31 Кбайт (0%)
Заголовок : Форсированные (вер. Ash61)
Язык : Ukrainian
Default : Нет
Forced : Нет
Текст #4
Идентификатор : 7
Формат : UTF-8
Идентификатор кодека : S_TEXT/UTF8
Идентификатор кодека/Информация : UTF-8 Plain Text
Продолжительность : 2 ч. 12 м.
Битрейт : 94 бит/сек
Count of elements : 1821
Размер потока : 92,2 Кбайт (0%)
Язык : Ukrainian
Default : Нет
Forced : Нет
Текст #5
Идентификатор : 8
Формат : UTF-8
Идентификатор кодека : S_TEXT/UTF8
Идентификатор кодека/Информация : UTF-8 Plain Text
Продолжительность : 5 с. 90 мс.
Битрейт : 80 бит/сек
Count of elements : 2
Размер потока : 51,0 байт (0%)
Заголовок : Forced
Язык : English
Default : Нет
Forced : Нет
Текст #6
Идентификатор : 9
Формат : UTF-8
Идентификатор кодека : S_TEXT/UTF8
Идентификатор кодека/Информация : UTF-8 Plain Text
Продолжительность : 2 ч. 12 м.
Битрейт : 69 бит/сек
Count of elements : 1928
Размер потока : 67,6 Кбайт (0%)
Язык : English
Default : Нет
Forced : Нет
Текст #7
Идентификатор : 10
Формат : UTF-8
Идентификатор кодека : S_TEXT/UTF8
Идентификатор кодека/Информация : UTF-8 Plain Text
Продолжительность : 2 ч. 12 м.
Битрейт : 75 бит/сек
Count of elements : 2211
Размер потока : 74,0 Кбайт (0%)
Заголовок : SDH
Язык : English
Default : Нет
Forced : Нет
Текст #8
Идентификатор : 11
Формат : UTF-8
Идентификатор кодека : S_TEXT/UTF8
Идентификатор кодека/Информация : UTF-8 Plain Text
Продолжительность : 2 ч. 12 м.
Битрейт : 92 бит/сек
Count of elements : 2211
Размер потока : 90,3 Кбайт (0%)
Заголовок : SDH Colored
Язык : English
Default : Нет
Forced : Нет
Меню
00:00:00.000 : :1
00:05:34.082 : :2
00:14:24.279 : :3
00:20:50.999 : :4
00:26:19.243 : :5
00:36:27.976 : :6
00:46:03.927 : :7
00:54:40.193 : :8
01:05:10.280 : :9
01:12:03.277 : :10
01:20:20.189 : :11
01:29:41.542 : :12
01:36:56.894 : :13
01:44:44.152 : :14
01:50:31.248 : :15
01:57:53.565 : :16





   Похожие торренты   Торрент   Размер 
В этой теме нет новых непрочитанных сообщений. Человек-паук: Возвращение домой / Spider-Man: Homecoming (2017) BDRip-AVC от New-Team | iTunes

176 | 10

744.71 МБ

В этой теме нет новых непрочитанных сообщений. Человек-паук: Возвращение домой / Spider-Man: Homecoming (2017) BDRip 1080p от New-Team & qqss44 | iTunes

442 | 40

7.51 ГБ

В этой теме нет новых непрочитанных сообщений. Человек-паук: Возвращение домой / Spider-Man: Homecoming (2017) WEB-DLRip-AV от New-Team | iTunes

4632 | 471

1.46 ГБ

В этой теме нет новых непрочитанных сообщений. Человек-паук: Возвращение домой / Spider-Man: Homecoming (2017) WEB-DLRip-AVC от New-Team | iTunes

810 | 3

2.26 ГБ

В этой теме нет новых непрочитанных сообщений. Человек-паук: Возвращение домой / Spider-Man: Homecoming (2017) BDRip-AVC от OlLanDGroup | iTunes

0 | 0

2.56 ГБ

В этой теме нет новых непрочитанных сообщений. Человек-паук: Возвращение домой / Spider-Man: Homecoming (2017) BDRip-AVC от HELLYWOOD | iTunes

3 | 0

1.46 ГБ

В этой теме нет новых непрочитанных сообщений. Человек-паук: Возвращение домой / Spider-Man: Homecoming (2017) BDRip 720p | iTunes

38 | 12

7.5 ГБ




Вы не можете начинать темы
Вы не можете отвечать на сообщения
Вы не можете редактировать свои сообщения
Вы не можете удалять свои сообщения
Вы не можете добавлять вложения

Перейти:  
Для Мосгорсуда, Роскомнадзора и рекламодателей: mosgorsud-torrent[собачка]yandex.ru
 Вход
ppkBB3cker v.2 © 2008-2014 @ PPK
[ Time : 0.057s | 19 Queries | GZIP : Off ]

cron