img image001 image001 image001 image001 image001 image001 image001 image001 image001 image001 image001 image001 image001 image001 image001

Planets Sun Sun Sun
Статистика раздачи
Автор: Nickolas3434 | Размер: 744.71 МБ | Добавлен: 10 окт 2017
Раздают: 218    Качают: 29
Скачать торрент
Скачать торрент
Описание торрента

СообщениеДобавлено: 10 окт 2017 



Наша группа ВКонтакте
Присоединяйтесь!

Человек-паук: Возвращение домой
Spider-Man: Homecoming
«Homework can wait. The city can't»


Страна: США
Жанр: фантастика, боевик, приключения
Год выпуска: 2017
Продолжительность: 02:12:31
Перевод: Профессиональный (полное дублирование) [iTunes]
Субтитры: русские (форсированные, полные)
Оригинальная аудиодорожка: нет
Режиссер: Джон Уоттс / Jon Watts
В ролях: Том Холланд, Роберт Дауни мл., Майкл Китон, Мариса Томей, Джон Фавро, Джейкоб Баталон, Зендея, Лора Хэрриер, Тони Револори, Дональд Гловер, Гвинет Пэлтроу, Боким Вудбайн
Описание:
После исторической встречи с командой Мстителей Питер Паркер возвращается домой, стараясь зажить обычной жизнью под опекой своей тёти Мэй. Но теперь за Питером приглядывает ещё кое-что... Тони Старк видел Человека-Паука в деле и должен стать его наставником. Когда новый злодей Стервятник угрожает уничтожить всё, что дорого Питеру, приходит время доказать всем, что такое настоящий супергерой.

Релиз:
Автор рипа: stalkerok
Сэмпл
Качество видео: BDRip-AVC [Spider-Man: Homecoming (2017) BD-Remux - BLUEBIRD]
Формат видео: MKV
Видео кодек: AVC
Аудио кодек: AAC
Видео: 680 Кбит/сек, 728*304 (2,40:1), в 23,976 (24000/1001) кадра/сек, AVC
Аудио: русский, 98,0 Кбит/сек, 48,0 КГц, 2 канала, AAC (LC)
Навигация по главам: есть

x264 [info]: frame I:1857 Avg QP:18.79 size: 22733
x264 [info]: frame P:44241 Avg QP:20.99 size: 7204
x264 [info]: frame B:145902 Avg QP:23.16 size: 2190
Общее
Уникальный идентификатор : 208926463503184329612687787274089520119 (0x9D2DC5F1FADDCB46BC92B3F64FD3DBF7)
Полное имя : M:!Rips2017Spider-Man HomecomingBDSpider-Man.Homecoming.2017.BDRip-AVC.RUS..stalkerok.new-team.mkv
Формат : Matroska
Версия формата : Version 4 / Version 2
Размер файла : 745 Мбайт
Продолжительность : 2 ч. 13 м.
Общий поток : 780 Кбит/сек
Название фильма : Spider-Man: Homecoming (2017) (Rip by stalkerok)
Дата кодирования : UTC 2017-10-10 12:08:42
Программа кодирования : mkvmerge v8.6.1 ('Flying') 64bit
Библиотека кодирования : libebml v1.3.3 + libmatroska v1.4.4
Видео
Идентификатор : 1
Формат : AVC
Формат/Информация : Advanced Video Codec
Профиль формата : High@L4.1
Параметр CABAC формата : Да
Параметр ReFrames формата : 16 кадров
Идентификатор кодека : V_MPEG4/ISO/AVC
Продолжительность : 2 ч. 13 м.
Битрейт : 680 Кбит/сек
Ширина : 728 пикселей
Высота : 304 пикселя
Соотношение сторон : 2,40:1
Режим частоты кадров : Постоянный
Частота кадров : 23,976 (24000/1001) кадра/сек
Цветовое пространство : YUV
Субдискретизация насыщенности : 4:2:0
Битовая глубина : 8 бит
Тип развёртки : Прогрессивная
Бит/(Пиксели*Кадры) : 0.128
Размер потока : 649 Мбайт (87%)
Заголовок : Spider-Man: Homecoming (2017) (Rip by stalkerok)
Библиотека кодирования : x264 core 150 r2833kMod df79067
Настройки программы : cabac=1 / ref=16 / deblock=1:-3:-2 / analyse=0x3:0x133 / me=umh / subme=11 / psy=1 / fade_compensate=0.00 / psy_rd=1.00:0.00 / mixed_ref=1 / me_range=32 / chroma_me=1 / trellis=2 / 8x8dct=1 / cqm=0 / deadzone=21,11 / fast_pskip=0 / chroma_qp_offset=-2 / threads=9 / lookahead_threads=2 / sliced_threads=0 / nr=0 / decimate=1 / interlaced=0 / bluray_compat=0 / constrained_intra=0 / bframes=16 / b_pyramid=2 / b_adapt=2 / b_bias=0 / direct=3 / weightb=1 / open_gop=0 / weightp=2 / keyint=240 / keyint_min=23 / scenecut=40 / intra_refresh=0 / rc_lookahead=60 / rc=crf / mbtree=0 / crf=20.0000 / qcomp=0.65 / qpmin=0 / qpmax=69 / qpstep=4 / vbv_maxrate=50000 / vbv_bufsize=62500 / crf_max=0.0 / nal_hrd=none / filler=0 / ip_ratio=1.35 / pb_ratio=1.25 / aq=3:0.90 / zones=176851,179946,q=35/181238,191999,q=35
Default : Да
Forced : Нет
Аудио
Идентификатор : 2
Формат : AAC
Формат/Информация : Advanced Audio Codec
Профиль формата : LC
Идентификатор кодека : A_AAC
Продолжительность : 2 ч. 13 м.
Битрейт : 98,0 Кбит/сек
Каналы : 2 канала
Расположение каналов : Front: L R
Частота : 48,0 КГц
Частота кадров : 46,875 кадров/сек (1024 spf)
Метод сжатия : С потерями
Задержка видео : 9 мс.
Размер потока : 93,6 Мбайт (13%)
Язык : Russian
Default : Да
Forced : Нет
Текст #1
Идентификатор : 3
Формат : UTF-8
Идентификатор кодека : S_TEXT/UTF8
Идентификатор кодека/Информация : UTF-8 Plain Text
Продолжительность : 2 ч. 9 м.
Битрейт : 1 бит/сек
Count of elements : 39
Размер потока : 1,82 Кбайт (0%)
Заголовок : Форсированные (вер. Ash61)
Язык : Russian
Default : Да
Forced : Нет
Текст #2
Идентификатор : 4
Формат : UTF-8
Идентификатор кодека : S_TEXT/UTF8
Идентификатор кодека/Информация : UTF-8 Plain Text
Продолжительность : 2 ч. 12 м.
Битрейт : 104 бит/сек
Count of elements : 1826
Размер потока : 102 Кбайт (0%)
Язык : Russian
Default : Нет
Forced : Нет
Меню
00:00:00.000 : :1
00:05:34.082 : :2
00:14:24.279 : :3
00:20:50.999 : :4
00:26:19.243 : :5
00:36:27.976 : :6
00:46:03.927 : :7
00:54:40.193 : :8
01:05:10.280 : :9
01:12:03.277 : :10
01:20:20.189 : :11
01:29:41.542 : :12
01:36:56.894 : :13
01:44:44.152 : :14
01:50:31.248 : :15
01:57:53.565 : :16





   Похожие торренты   Торрент   Размер 
В этой теме нет новых непрочитанных сообщений. Человек-паук: Возвращение домой / Spider-Man: Homecoming (2017) BDRip-AVC от New-Team | iTunes

477 | 29

2.88 ГБ

В этой теме нет новых непрочитанных сообщений. Человек-паук: Возвращение домой / Spider-Man: Homecoming (2017) BDRip 1080p от New-Team & qqss44 | iTunes

521 | 33

7.51 ГБ

В этой теме нет новых непрочитанных сообщений. Человек-паук: Возвращение домой / Spider-Man: Homecoming (2017) WEB-DLRip-AVC от New-Team | iTunes

810 | 3

2.26 ГБ

В этой теме нет новых непрочитанных сообщений. Человек-паук: Возвращение домой / Spider-Man: Homecoming (2017) WEB-DLRip-AV от New-Team | iTunes

4632 | 471

1.46 ГБ

В этой теме нет новых непрочитанных сообщений. Человек-паук: Возвращение домой / Spider-Man: Homecoming (2017) BDRip-AVC от HELLYWOOD | iTunes

51 | 13

1.46 ГБ

В этой теме нет новых непрочитанных сообщений. Человек-паук: Возвращение домой / Spider-Man: Homecoming (2017) BDRip-AVC от OlLanDGroup | iTunes

140 | 12

2.56 ГБ

В этой теме нет новых непрочитанных сообщений. Человек-паук: Возвращение домой / Spider-Man: Homecoming (2017) BDRip 1080p | iTunes

38 | 12

10.2 ГБ




Вы не можете начинать темы
Вы не можете отвечать на сообщения
Вы не можете редактировать свои сообщения
Вы не можете удалять свои сообщения
Вы не можете добавлять вложения

Перейти:  
Для Мосгорсуда, Роскомнадзора и рекламодателей: mosgorsud-torrent[собачка]yandex.ru
 Вход
ppkBB3cker v.2 © 2008-2014 @ PPK
[ Time : 0.079s | 19 Queries | GZIP : Off ]

Торрент трекер RUTOR.IN, Не можете зайти на rutor.org? Какой новый адрес рутор? Какое зеркало рутор? Не работает rutor.org и зеркала? Тогда наш торрент специально для вас. Rutor.in неофициальное зеркало rutor. В случае если у Вас заблокирован rutor или вдруг Вы не можете на него зайти, то Вы без труда сможете скачать бесплатно и без рекламы последние новинки кино, игр, сериалов и прочего у нас, на Rutor.in. Не нужно использовать прокси, чтобы зайти на рутор, достаточно воспользоваться нашим ресурсом. Все новые фильмы, игры, сериалы, книги и музыка за 2013 и 2014 годы через торрент бесплатно. Скачивайте фильмы в хорошем качестве, игры для пк, xbox, playstation без регистрации. У нас вы найдете новые Зарубежные сериалы и Русские сериалы 2013, 2014, 2015 годов. Оставайтесь с нами, качайте любимые фильмы, игры, сериалы, книги и музыку.
cron