img image001 image001 image001 image001 image001 image001 image001 image001 image001 image001 image001 image001 image001 image001 image001

Planets Sun Sun Sun
Статистика раздачи
Автор: Nickolas3434 | Размер: 760.42 МБ | Добавлен: 10 окт 2017
Раздают: 302    Качают: 9
Скачать торрент
Скачать торрент
Описание торрента

СообщениеДобавлено: 10 окт 2017 



Наша группа ВКонтакте
Присоединяйтесь!

Малыш на драйве
Baby Driver
«Сколько треков нужно для хорошего ограбления?»


Страна: Великобритания, США
Жанр: боевик, триллер, криминал, музыка
Год выпуска: 2017
Продолжительность: 01:52:40
Перевод: Профессиональный (полное дублирование) [iTunes]
Субтитры: русские (форсированные, полные)
Оригинальная аудиодорожка: нет
Режиссер: Эдгар Райт / Edgar Wright
В ролях: Энсел Элгорт, Кевин Спейси, Лили Джеймс, Эйса Гонсалес, Джон Хэмм, Джейми Фокс, Джон Бернтал, Фли, Лэнни Джун, Мика Ховард, Морган Браун, Морс Диггз
Описание:
Молодой парень по прозвищу Малыш обожает стильную музыку, быструю езду и адреналин в крови. Вся его жизнь - это сплошные погони и перестрелки, ведь он работает водителем, который помогает бандитам скрыться с места преступления. Однажды он по-настоящему влюбляется и решает выйти из игры, но сначала ему предстоит выполнить еще одно задание, которое вполне может оказаться последним в его жизни.

Релиз:
Автор рипа: stalkerok
Сэмпл
Качество видео: BDRip-AVC [Baby Driver (2017) Blu-ray Disc - BLUEBIRD]
Формат видео: MKV
Видео кодек: AVC
Аудио кодек: AAC
Видео: 880 Кбит/сек, 746*312 (2,40:1), в 23,976 (24000/1001) кадра/сек, AVC
Аудио: русский, 62,0 Кбит/сек, 48,0 КГц / 24,0 КГц, 2 канала, AAC (HE-AAC / LC)
Навигация по главам: есть

x264 [info]: frame I:1688 Avg QP:19.32 size: 26472
x264 [info]: frame P:37982 Avg QP:21.02 size: 9265
x264 [info]: frame B:122426 Avg QP:23.21 size: 2832
Общее
Уникальный идентификатор : 214125231918003128797700847735959353485 (0xA11705048100F0E7B764F45F7CD2788D)
Полное имя : M:!Rips2017Baby DriverBaby.Driver.2017.BDRip-AVC.RUS..stalkerok.new-team.mkv
Формат : Matroska
Версия формата : Version 4 / Version 2
Размер файла : 760 Мбайт
Продолжительность : 1 ч. 52 м.
Общий поток : 944 Кбит/сек
Название фильма : Baby Driver (2017) (Rip by stalkerok)
Дата кодирования : UTC 2017-10-10 12:06:24
Программа кодирования : mkvmerge v8.6.1 ('Flying') 64bit
Библиотека кодирования : libebml v1.3.3 + libmatroska v1.4.4
Видео
Идентификатор : 1
Формат : AVC
Формат/Информация : Advanced Video Codec
Профиль формата : High@L4.1
Параметр CABAC формата : Да
Параметр ReFrames формата : 16 кадров
Идентификатор кодека : V_MPEG4/ISO/AVC
Продолжительность : 1 ч. 52 м.
Битрейт : 880 Кбит/сек
Ширина : 746 пикселей
Высота : 312 пикселей
Соотношение сторон : 2,40:1
Режим частоты кадров : Постоянный
Частота кадров : 23,976 (24000/1001) кадра/сек
Цветовое пространство : YUV
Субдискретизация насыщенности : 4:2:0
Битовая глубина : 8 бит
Тип развёртки : Прогрессивная
Бит/(Пиксели*Кадры) : 0.158
Размер потока : 709 Мбайт (93%)
Заголовок : Baby Driver (2017) (Rip by stalkerok)
Библиотека кодирования : x264 core 150 r2833kMod df79067
Настройки программы : cabac=1 / ref=16 / deblock=1:-3:-2 / analyse=0x3:0x133 / me=umh / subme=11 / psy=1 / fade_compensate=0.00 / psy_rd=1.00:0.00 / mixed_ref=1 / me_range=32 / chroma_me=1 / trellis=2 / 8x8dct=1 / cqm=0 / deadzone=21,11 / fast_pskip=0 / chroma_qp_offset=-2 / threads=10 / lookahead_threads=2 / sliced_threads=0 / nr=0 / decimate=1 / interlaced=0 / bluray_compat=0 / constrained_intra=0 / bframes=16 / b_pyramid=2 / b_adapt=2 / b_bias=0 / direct=3 / weightb=1 / open_gop=0 / weightp=2 / keyint=240 / keyint_min=23 / scenecut=40 / intra_refresh=0 / rc_lookahead=60 / rc=crf / mbtree=0 / crf=20.0000 / qcomp=0.65 / qpmin=0 / qpmax=69 / qpstep=4 / vbv_maxrate=50000 / vbv_bufsize=62500 / crf_max=0.0 / nal_hrd=none / filler=0 / ip_ratio=1.35 / pb_ratio=1.25 / aq=3:0.90 / zones=156541,162095,q=35
Default : Да
Forced : Нет
Аудио
Идентификатор : 2
Формат : AAC
Формат/Информация : Advanced Audio Codec
Профиль формата : HE-AAC / LC
Идентификатор кодека : A_AAC
Продолжительность : 1 ч. 52 м.
Битрейт : 62,0 Кбит/сек
Каналы : 2 канала
Расположение каналов : Front: L R
Частота : 48,0 КГц / 24,0 КГц
Частота кадров : 23,438 кадра/сек (1024 spf)
Метод сжатия : С потерями
Задержка видео : 31 мс.
Размер потока : 50,0 Мбайт (7%)
Язык : Russian
Default : Да
Forced : Нет
Текст #1
Идентификатор : 3
Формат : UTF-8
Идентификатор кодека : S_TEXT/UTF8
Идентификатор кодека/Информация : UTF-8 Plain Text
Продолжительность : 1 ч. 51 м.
Битрейт : 3 бит/сек
Count of elements : 93
Размер потока : 2,65 Кбайт (0%)
Заголовок : Forced
Язык : Russian
Default : Да
Forced : Нет
Текст #2
Идентификатор : 4
Формат : UTF-8
Идентификатор кодека : S_TEXT/UTF8
Идентификатор кодека/Информация : UTF-8 Plain Text
Продолжительность : 1 ч. 51 м.
Битрейт : 96 бит/сек
Count of elements : 1602
Размер потока : 78,7 Кбайт (0%)
Язык : Russian
Default : Нет
Forced : Нет
Меню
00:00:00.000 : en:Chapter 1
00:09:11.049 : en:Chapter 2
00:13:30.475 : en:Chapter 3
00:20:58.173 : en:Chapter 4
00:25:17.598 : en:Chapter 5
00:33:07.902 : en:Chapter 6
00:43:43.244 : en:Chapter 7
00:48:15.641 : en:Chapter 8
00:53:39.548 : en:Chapter 9
00:58:51.902 : en:Chapter 10
01:05:23.543 : en:Chapter 11
01:11:34.081 : en:Chapter 12
01:19:17.002 : en:Chapter 13
01:30:30.675 : en:Chapter 14
01:38:04.167 : en:Chapter 15
01:43:30.412 : en:Chapter 16





   Похожие торренты   Торрент   Размер 
В этой теме нет новых непрочитанных сообщений. Малыш на драйве / Baby Driver (2017) BDRip-AVC от New-Team | iTunes

353 | 6

2.94 ГБ

В этой теме нет новых непрочитанных сообщений. Малыш на драйве / Baby Driver (2017) BDRip-AVC от New-Team | iTunes

417 | 9

2.26 ГБ

В этой теме нет новых непрочитанных сообщений. Малыш на драйве / Baby Driver (2017) BDRip-AVC от New-Team | iTunes

299 | 7

1.54 ГБ

В этой теме нет новых непрочитанных сообщений. Малыш на драйве / Baby Driver (2017) BDRip 1080p от New-Team & qqss44 | iTunes

442 | 12

9.72 ГБ

В этой теме нет новых непрочитанных сообщений. Малыш на драйве / Baby Driver (2017) BDRip-AVC от HELLYWOOD | iTunes

305 | 3

2.13 ГБ

В этой теме нет новых непрочитанных сообщений. Малыш на драйве / Baby Driver (2017) BDRip-AVC от ExKinoRay | iTunes

124 | 0

2.6 ГБ

В этой теме нет новых непрочитанных сообщений. Малыш на драйве / Baby Driver (2017) BDRip-AVC от Generalfilm| iTunes

120 | 3

2.03 ГБ




Вы не можете начинать темы
Вы не можете отвечать на сообщения
Вы не можете редактировать свои сообщения
Вы не можете удалять свои сообщения
Вы не можете добавлять вложения

Перейти:  
Для Мосгорсуда, Роскомнадзора и рекламодателей: mosgorsud-torrent[собачка]yandex.ru
 Вход
ppkBB3cker v.2 © 2008-2014 @ PPK
[ Time : 0.054s | 19 Queries | GZIP : Off ]

cron