img image001 image001 image001 image001 image001 image001 image001 image001 image001 image001 image001 image001 image001 image001 image001

Planets Sun Sun Sun

COVID-19 - Последняя информация о коронавирусе на сайте Минздрава


Статистика раздачи
Автор: Nickolas3434 | Размер: 19.86 ГБ | Добавлен: 13 окт 2017
Раздают: 1    Качают: 2
Скачать торрент
Скачать торрент
Описание торрента

СообщениеДобавлено: 13 окт 2017 

Информация о фильме
Название: Чужой 2: На Земле
Оригинальное название: Alien 2 sulla Terra / Alien 2: On Earth
Год выхода: 1980
Жанр: ужасы, фантастика
Режиссер: Чиро Ипполито, Бьяджо Пройетти
В ролях: Белинда Мэйн, Марк Бодин, Роберто Баррези, Бенни Олдрич, Микеле Соави, Джуди Перрин, Дон Паркинсон, Клаудио Фаланга, Фабриция Кастаньоли, Луиджи Диберти
О фильме: Модуль с астронавтами, после неудачной экспедиции на орбиту, приземляется в океане, но спасатели находят лишь обезображенные трупы и существ, сделавших это. Группа спелеологов борется с монстрами в подземных пещерах, надеясь на спасение и возвращение на поверхность…

Страна: Италия
Продолжительность: 01:24:27
Перевод 1: Любительский (одноголосый закадровый) Вячеслав Котов
Перевод 2: Любительский (одноголосый закадровый)
Оригинальная аудиодорожка: Английская
Файл
Качество: BDRemux 1080р
Видео: MPEG-4 AVC Video / 31626 kbps / 1920x1080p / 24 fps / 16:9 / High Profile 4.1
Аудио 1: Русский / Dolby Digital Audio / 192 kbps / 2.0 / 48 kHz / 16-bit (VO Вячеслав Котов)
Аудио 2: Русский / Dolby Digital Audio / 192 kbps / 2.0 / 48 kHz / 16-bit (VO)
Аудио 3: English / DTS-HD Master Audio / 1662 kbps / 2.0 / 48 kHz / 24-bit (DTS Core: 2.0 / 48 kHz / 1509 kbps /

Чужой 2 На Земле (Инопланетный ужас) (Alien 2 Sulla Terra, Alien 2 On Earth, Alien Terror) 1980, Италия, ужасы, фантастика, BDRemux 1080p GORENOISE.mkv
General
Unique ID : 176390645120376926590195291915233609143 (0x84B39A3FB7011BAF8EC009BDDA3945B7)
Complete name : Чужой 2 На Земле (Инопланетный ужас) (Alien 2 Sulla Terra, Alien 2 On Earth, Alien Terror) 1980, Италия, ужасы, фантастика, BDRemux 1080p GORENOISE.mkv
Format : Matroska
Format version : Version 4 / Version 2
File size : 19.9 GiB
Duration : 1h 24mn
Overall bit rate mode : Variable
Overall bit rate : 33.7 Mbps
Movie name : GORENOISE
Encoded date : UTC 2010-02-22 21:41:31
Writing application : mkvmerge v5.9.0 ('On The Loose') built on Dec 9 2012 15:37:01
Writing library : libebml v1.3.0 + libmatroska v1.4.0
Video #1
ID : 1
Format : AVC
Format/Info : Advanced Video Codec
Format profile : High@L4.1
Format settings, CABAC : Yes
Format settings, ReFrames : 4 frames
Format settings, GOP : M=3, N=24
Codec ID : V_MPEG4/ISO/AVC
Duration : 1h 24mn
Bit rate mode : Variable
Bit rate : 31.1 Mbps
Maximum bit rate : 37.0 Mbps
Width : 1 920 pixels
Height : 1 080 pixels
Display aspect ratio : 16:9
Frame rate mode : Constant
Frame rate : 24.000 fps
Standard : NTSC
Color space : YUV
Chroma subsampling : 4:2:0
Bit depth : 8 bits
Scan type : Progressive
Bits/(Pixel*Frame) : 0.624
Stream size : 18.3 GiB (92%)
Title : GORENOISE
Language : English
Default : Yes
Forced : No
Color primaries : BT.709
Transfer characteristics : BT.709
Matrix coefficients : BT.709
Audio #2
ID : 2
Format : AC-3
Format/Info : Audio Coding 3
Mode extension : CM (complete main)
Format settings, Endianness : Big
Codec ID : A_AC3
Duration : 1h 24mn
Bit rate mode : Constant
Bit rate : 192 Kbps
Channel(s) : 2 channels
Channel positions : Front: L R
Sampling rate : 48.0 KHz
Bit depth : 16 bits
Compression mode : Lossy
Stream size : 116 MiB (1%)
Title : Авторский (одноголосый закадровый) Вячеслав Котов
Language : Russian
Default : Yes
Forced : No
Audio #3
ID : 3
Format : AC-3
Format/Info : Audio Coding 3
Mode extension : CM (complete main)
Format settings, Endianness : Big
Codec ID : A_AC3
Duration : 1h 24mn
Bit rate mode : Constant
Bit rate : 192 Kbps
Channel(s) : 2 channels
Channel positions : Front: L R
Sampling rate : 48.0 KHz
Bit depth : 16 bits
Compression mode : Lossy
Stream size : 116 MiB (1%)
Title : Одноголосый закадровый "хохол"
Language : Russian
Default : No
Forced : No
Audio #4
ID : 4
Format : DTS
Format/Info : Digital Theater Systems
Format profile : MA / Core
Codec ID : A_DTS
Duration : 1h 24mn
Bit rate mode : Variable
Bit rate : 1 558 Kbps / 1 510 Kbps
Channel(s) : 2 channels
Channel positions : Front: L R
Sampling rate : 48.0 KHz
Bit depth : 24 bits
Compression mode : Lossless / Lossy
Title : Оригинал
Language : English
Default : No
Forced : No
Menu
00:00:00.000 : en:1
00:10:51.958 : en:2
00:18:50.375 : en:3
00:27:16.583 : en:4
00:36:01.833 : en:5
00:46:02.625 : en:6
00:52:42.500 : en:7
01:02:28.125 : en:8
01:09:10.708 : en:9
01:20:39.083 : en:10

   Похожие торренты   Торрент   Размер 
В этой теме нет новых непрочитанных сообщений. Чужой / Alien (1979) BDREMUX 1080p | D, P, A | Theatrical cut | Remastered |

64 | 20

26.19 ГБ

В этой теме нет новых непрочитанных сообщений. Чужой: Завет / Alien: Covenant (2017) BDRemux 1080p | D, L, A | Лицензия

26 | 10

41.35 ГБ

В этой теме нет новых непрочитанных сообщений. Чужой: Завет / Alien: Covenant (2017) BDRemux 1080p | D, L, A | Лицензия

194 | 30

38.39 ГБ

В этой теме нет новых непрочитанных сообщений. Чужой: Завет / Alien: Covenant (2017) BDRemux 1080p от ExKinoRay | Лицензия

162 | 27

26.7 ГБ

В этой теме нет новых непрочитанных сообщений. Чужой: Завет / Alien: Covenant (2017) BDRemux 1080p | D | Расширенная версия

204 | 43

25.38 ГБ

В этой теме нет новых непрочитанных сообщений. Чужой: Завет / Alien: Covenant (2017) TS | D

38 | 12

1.37 ГБ

В этой теме нет новых непрочитанных сообщений. Чужой: Завет / Alien: Covenant (2017) TS | D

1897 | 23

2.05 ГБ




Вы не можете начинать темы
Вы не можете отвечать на сообщения
Вы не можете редактировать свои сообщения
Вы не можете удалять свои сообщения
Вы не можете добавлять вложения

Перейти:  
Контактная информация: rstracker[пёсик]yandex.ru
 Вход
ppkBB3cker v.2 © 2008-2014 @ PPK
[ Time : 0.031s | 18 Queries | GZIP : Off ]

cron