img image001 image001 image001 image001 image001 image001 image001 image001 image001 image001 image001 image001 image001 image001 image001 image001

Planets Sun Sun Sun
Статистика раздачи
Автор: Nickolas3434 | Размер: 4.21 ГБ | Добавлен: 14 окт 2017
Раздают: 0    Качают: 0
Скачать торрент
Скачать торрент
Описание торрента

СообщениеДобавлено: 14 окт 2017 

Танк / Tank
Год выхода: 1984
Жанр: Боевик, комедия, драма
Режиссер: Марвин Дж. Чомски
В ролях: Джеймс Гарнер, Ширли Джонс, С. Томас Хауэлл, Марк Херриер, Сэнди Уорд, Дженили Харрисон, Джеймс Кромуэлл, Дориан Хэрвуд, Г.Д. Спрэдлин, Джон Хэнкок, Гай Бойд, Дэн Олбрайт, Джералд А. Аткинс, Рон Баскин, Кейт Джером Браун
О фильме: Сержант Зак Карей не терпел несправедливости. Именно поэтому он ударил полицейского, который грубо обошелся с проституткой Сарой. Местный шериф решил проучить Зака и состряпал ложное обвинение в отношении его сына Билли. После того, как сына посадили за решетку за преступление, которого тот не совершал, американский сержант решает взять дело в свои руки. Зак попадает в заголовки всех газет, когда освобождая Билли, вместе с Сарой отправляется к шерифу на собственном танке.

Страна: США
Студия: Universal Productions, Lorimar Film Entertainment
Продолжительность: 01:53:00
Перевод: Профессиональный двухголосый, авторский
Кодек: х264
Качество: WEB-DLRip 720р
Видео: MPEG-4 AVC, 1280х720, 23,976 fps, 4500 Кбит/с
Аудио 1: AC3, 2 ch, 224 kbps, CBR - Русский (DVO)
Аудио 2: AC3, 2 ch, 192 kbps, CBR - Русский (А. Михалёв)
Аудио 3: AC3, 2 ch, 192 kbps, CBR - Русский (Володарский)
Аудио 4: AC3, 2 ch, 224 kbps, CBR - Английский
Субтитры: Английские (SDH)
Спасибо: filbi1976 за помощь в создании рипа.
kisa1980 за постер.

x264 [info]: frame I:1078 Avg QP:17.85 size:132758
x264 [info]: frame P:37893 Avg QP:20.86 size: 44175
x264 [info]: frame B:123589 Avg QP:22.62 size: 16155
=========================================================================
General
Unique ID : 232287358930311435504308720352263409673 (0xAEC0EB03CB6C043EBCE182AE11581009)
Complete name : E:Танк_1984-WEB-DL.720p_KORSAR.mkv
Format : Matroska
Format version : Version 2
File size : 4.21 GiB
Duration : 1 h 53 min
Overall bit rate : 5 333 kb/s
Encoded date : UTC 2017-10-09 18:44:59
Writing application : mkvmerge v5.8.0 ('No Sleep / Pillow') built on Sep 2 2012 15:37:04
Writing library : libebml v1.2.3 + libmatroska v1.3.0
Video
ID : 1
Format : AVC
Format/Info : Advanced Video Codec
Format profile : High@L4.1
Format settings, CABAC : Yes
Format settings, ReFrames : 9 frames
Codec ID : V_MPEG4/ISO/AVC
Duration : 1 h 53 min
Bit rate : 4 500 kb/s
Width : 1 280 pixels
Height : 720 pixels
Display aspect ratio : 16:9
Frame rate mode : Constant
Frame rate : 23.976 (24000/1001) FPS
Color space : YUV
Chroma subsampling : 4:2:0
Bit depth : 8 bits
Scan type : Progressive
Bits/(Pixel*Frame) : 0.204
Stream size : 3.47 GiB (82%)
Writing library : x264 core 152 r2851kMod ba24899
Encoding settings : cabac=1 / ref=9 / deblock=1:-2:-2 / analyse=0x3:0x113 / me=umh / subme=10 / psy=1 / fade_compensate=0.00 / psy_rd=1.05:0.10 / mixed_ref=1 / me_range=48 / chroma_me=1 / trellis=2 / 8x8dct=1 / cqm=0 / deadzone=21,11 / fast_pskip=0 / chroma_qp_offset=-3 / threads=12 / lookahead_threads=3 / sliced_threads=0 / nr=0 / decimate=0 / interlaced=0 / bluray_compat=0 / constrained_intra=0 / bframes=16 / b_pyramid=2 / b_adapt=2 / b_bias=0 / direct=3 / weightb=1 / open_gop=0 / weightp=2 / keyint=250 / keyint_min=23 / scenecut=40 / intra_refresh=0 / rc_lookahead=40 / rc=2pass / mbtree=0 / bitrate=4500 / ratetol=1.0 / qcomp=0.60 / qpmin=0 / qpmax=39 / qpstep=4 / cplxblur=20.0 / qblur=0.5 / vbv_maxrate=50000 / vbv_bufsize=62500 / nal_hrd=none / filler=0 / ip_ratio=1.40 / pb_ratio=1.30 / aq=1:1.00
Language : English
Default : Yes
Forced : No
Color range : Limited
Color primaries : BT.709
Transfer characteristics : BT.709
Matrix coefficients : BT.709
Audio #1
ID : 2
Format : AC-3
Format/Info : Audio Coding 3
Mode extension : CM (complete main)
Format settings, Endianness : Big
Codec ID : A_AC3
Duration : 1 h 53 min
Bit rate mode : Constant
Bit rate : 224 kb/s
Channel(s) : 2 channels
Channel positions : Front: L R
Sampling rate : 48.0 kHz
Frame rate : 31.250 FPS (1536 spf)
Bit depth : 16 bits
Compression mode : Lossy
Stream size : 181 MiB (4%)
Title : DVO
Language : Russian
Default : Yes
Forced : No
Statistics Tags Issue : mkvmerge v15.0.0 ('Duel with the Devil') 64-bit 2017-10-05 19:30:57 / mkvmerge v5.8.0 ('No Sleep / Pillow') built on Sep 2 2012 15:37:04 2017-10-09 18:44:59
FromStats_BitRate : 224000
FromStats_Duration : 01:53:00.992000000
FromStats_FrameCount : 211906
FromStats_StreamSize : 189867776
Audio #2
ID : 3
Format : AC-3
Format/Info : Audio Coding 3
Mode extension : CM (complete main)
Format settings, Endianness : Big
Codec ID : A_AC3
Duration : 1 h 53 min
Bit rate mode : Constant
Bit rate : 192 kb/s
Channel(s) : 2 channels
Channel positions : Front: L R
Sampling rate : 48.0 kHz
Frame rate : 31.250 FPS (1536 spf)
Bit depth : 16 bits
Compression mode : Lossy
Stream size : 155 MiB (4%)
Title : Михалев
Language : Russian
Default : No
Forced : No
Statistics Tags Issue : mkvmerge v15.0.0 ('Duel with the Devil') 64-bit 2017-10-05 19:30:57 / mkvmerge v5.8.0 ('No Sleep / Pillow') built on Sep 2 2012 15:37:04 2017-10-09 18:44:59
FromStats_BitRate : 192000
FromStats_Duration : 01:53:02.368000000
FromStats_FrameCount : 211949
FromStats_StreamSize : 162776832
Audio #3
ID : 4
Format : AC-3
Format/Info : Audio Coding 3
Mode extension : CM (complete main)
Format settings, Endianness : Big
Codec ID : A_AC3
Duration : 1 h 53 min
Bit rate mode : Constant
Bit rate : 192 kb/s
Channel(s) : 2 channels
Channel positions : Front: L R
Sampling rate : 48.0 kHz
Frame rate : 31.250 FPS (1536 spf)
Bit depth : 16 bits
Compression mode : Lossy
Stream size : 155 MiB (4%)
Title : Володарсий
Language : Russian
Default : No
Forced : No
Statistics Tags Issue : mkvmerge v15.0.0 ('Duel with the Devil') 64-bit 2017-10-05 19:30:57 / mkvmerge v5.8.0 ('No Sleep / Pillow') built on Sep 2 2012 15:37:04 2017-10-09 18:44:59
FromStats_BitRate : 192000
FromStats_Duration : 01:53:02.400000000
FromStats_FrameCount : 211950
FromStats_StreamSize : 162777600
Audio #4
ID : 5
Format : E-AC-3
Format/Info : Enhanced Audio Coding 3
Format settings, Endianness : Big
Codec ID : A_EAC3
Duration : 1 h 53 min
Bit rate mode : Constant
Bit rate : 224 kb/s
Channel(s) : 2 channels
Channel positions : Front: L R
Sampling rate : 48.0 kHz
Frame rate : 187.500 FPS (256 spf)
Compression mode : Lossy
Delay relative to video : 16 ms
Stream size : 181 MiB (4%)
Language : English
Default : No
Forced : No
Statistics Tags Issue : mkvmerge v15.0.0 ('Duel with the Devil') 64-bit 2017-10-05 19:30:57 / mkvmerge v5.8.0 ('No Sleep / Pillow') built on Sep 2 2012 15:37:04 2017-10-09 18:44:59
FromStats_BitRate : 224000
FromStats_Duration : 01:53:00.064000000
FromStats_FrameCount : 211877
FromStats_StreamSize : 189841792
Text
ID : 6
Format : UTF-8
Codec ID : S_TEXT/UTF8
Codec ID/Info : UTF-8 Plain Text
Language : English
Default : No
Forced : No
Statistics Tags Issue : mkvmerge v15.0.0 ('Duel with the Devil') 64-bit 2017-10-05 19:30:57 / mkvmerge v5.8.0 ('No Sleep / Pillow') built on Sep 2 2012 15:37:04 2017-10-09 18:44:59
FromStats_BitRate : 48
FromStats_Duration : 01:47:44.558000000
FromStats_FrameCount : 1322
FromStats_StreamSize : 39138

Сравнение с исходником



   Похожие торренты   Торрент   Размер 
В этой теме нет новых непрочитанных сообщений. Танк / Tank (1984) WEB-DL 1080р | P2, A

18 | 5

11.17 ГБ

В этой теме нет новых непрочитанных сообщений. Танк на Луне / Tank on the Moon (2008) HDTVRip-AVC от F-Torrents

8 | 3

755.71 МБ

В этой теме нет новых непрочитанных сообщений. Приключения Танчика / Tank Story [s01] (2012) WEB-DLRip 720p от ExKinoRay | D

1 | 0

13.3 ГБ

В этой теме нет новых непрочитанных сообщений. 1984 / Тысяча девятьсот восемьдесят четвёртый) / 1984 / Nineteen Eighty-Four (1984) WEB-DLRip | P2

243 | 21

1.46 ГБ

В этой теме нет новых непрочитанных сообщений. Танк 432 / Belly of the Bulldog (2015) WEB-DLRip | L

1133 | 100

1.37 ГБ

В этой теме нет новых непрочитанных сообщений. Приключения Танчика / Tank Story [s01] (2012) WEB-DLRip от ExKinoRay | D

2 | 0

15.83 ГБ

В этой теме нет новых непрочитанных сообщений. Приключения Танчика / Tank Story [s01] (2012) WEB-DLRip 1080p от ExKinoRay | D

0 | 0

27.33 ГБ




Вы не можете начинать темы
Вы не можете отвечать на сообщения
Вы не можете редактировать свои сообщения
Вы не можете удалять свои сообщения
Вы не можете добавлять вложения

Перейти:  
 Вход
ppkBB3cker v.2 © 2008-2014 @ PPK
[ Time : 0.040s | 17 Queries | GZIP : Off ]

cron