img image001 image001 image001 image001 image001 image001 image001 image001 image001 image001 image001 image001 image001 image001 image001

Planets Sun Sun Sun

COVID-19 - Последняя информация о коронавирусе на сайте Минздрава


Статистика раздачи
Автор: Nickolas3434 | Размер: 2.84 ГБ | Добавлен: 21 окт 2017
Раздают: 4    Качают: 4
Скачать торрент
Скачать торрент
Описание торрента

СообщениеДобавлено: 21 окт 2017 

Информация о фильме
Название: Плохая кровь / Плохая кровь: Лягушка-оборотень
Оригинальное название: Bad Blood: The Movie
Год выхода: 2016
Жанр: ужасы, фантастика, фэнтези
Режиссер: Тим Реис
В ролях: Мэри Маллой, Викас Адам, Трой Хэлверсон, Брайан Трокселл, Томи Лавиндер, Дэвид Александр, Том Бадингер, Мики Баньяс, Кевин Гэлбрейт, Майкл Глэдден
О фильме: Фильм про классического оборотня, но это - лягушка-оборотень. Один ученый пытается помочь девушке, которую укусил этот оборотень и найти для нее противоядие…

Страна: США / Axiom Live Media, Black Rider Productions, Media Team
Продолжительность: 01:19:48
Перевод: Любительский (одноголосый закадровый) [Хихикающий доктор]
Файл
Качество: WEB-DL 1080p
Формат: MKV
Видео: AVC, 4521 Кбит/сек, 1912x860
Звук: Русский: MP3, 2 ch, 192 Кбит/сек, английский: AC3, 6 ch, 384 Кбит/сек
Субтитры: английские
Дополнительно: Сохранены оригинальные главы (чаптеры)

Релиз от:
Формат : Matroska
Версия формата : Version 4 / Version 2
Размер файла : 2,84 Гбайт
Продолжительность : 1 ч. 19 м.
Общий поток : 5099 Кбит/сек
Название фильма : Bad.Blood.The.Movie.2016.1080p.WEB-DL.DD5.1.H264-FGT
Дата кодирования : UTC 2017-10-19 17:12:24
Программа кодирования : mkvmerge v15.0.0 ('Duel with the Devil') 64-bit
Библиотека кодирования : libebml v1.3.5 + libmatroska v1.4.5
Обложка : Yes
Attachments : small_cover.jpg / small_cover_land.jpg / cover.jpg / cover_land.jpg
Видео
Идентификатор : 1
Формат : AVC
Формат/Информация : Advanced Video Codec
Профиль формата : High@L4
Параметр CABAC формата : Да
Параметр ReFrames формата : 5 кадров
Идентификатор кодека : V_MPEG4/ISO/AVC
Продолжительность : 1 ч. 19 м.
Битрейт : 4521 Кбит/сек
Ширина : 1912 пикселей
Высота : 860 пикселей
Соотношение сторон : 2,223
Режим частоты кадров : Постоянный
Частота кадров : 23,976 (24000/1001) кадра/сек
Цветовое пространство : YUV
Субдискретизация насыщенности : 4:2:0
Битовая глубина : 8 бит
Тип развёртки : Прогрессивная
Бит/(Пиксели*Кадры) : 0.115
Размер потока : 2,52 Гбайт (89%)
Заголовок : Bad.Blood.The.Movie.2016.1080p.WEB-DL.DD5.1.H264-FGT
Язык : English
Default : Да
Forced : Нет
Цветовой диапазон : Limited
Основные цвета : BT.709
Характеристики трансфера : BT.709
Коэффициенты матрицы : BT.709
Аудио #1
Идентификатор : 2
Формат : MPEG Audio
Версия формата : Version 1
Профиль формата : Layer 3
Идентификатор кодека : A_MPEG/L3
Идентификатор кодека/Подсказка : MP3
Продолжительность : 1 ч. 19 м.
Вид битрейта : Постоянный
Битрейт : 192 Кбит/сек
Каналы : 2 канала
Частота : 44,1 КГц
Частота кадров : 38,281 кадров/сек (1152 spf)
Метод сжатия : С потерями
Задержка видео : -42 мс.
Размер потока : 110 Мбайт (4%)
Заголовок : xixidok
Язык : Russian
Default : Нет
Forced : Нет
Аудио #2
Идентификатор : 3
Формат : AC-3
Формат/Информация : Audio Coding 3
Расширение режима : CM (complete main)
Параметр Endianness формата : Big
Идентификатор кодека : A_AC3
Продолжительность : 1 ч. 19 м.
Вид битрейта : Постоянный
Битрейт : 384 Кбит/сек
Каналы : 6 каналов
Расположение каналов : Front: L C R, Side: L R, LFE
Частота : 48,0 КГц
Частота кадров : 31,250 кадров/сек (1536 spf)
Метод сжатия : С потерями
Задержка видео : -42 мс.
Размер потока : 219 Мбайт (8%)
Заголовок : Bad.Blood.The.Movie.2016.1080p.WEB-DL.DD5.1.H264-FGT
Язык : English
Default : Да
Forced : Нет
Текст
Идентификатор : 4
Формат : UTF-8
Идентификатор кодека : S_TEXT/UTF8
Идентификатор кодека/Информация : UTF-8 Plain Text
Продолжительность : 1 ч. 15 м.
Битрейт : 41 бит/сек
Count of elements : 696
Размер потока : 22,7 Кбайт (0%)
Язык : English
Default : Да
Forced : Нет
Меню
00:00:00.000 : en:1
00:02:50.000 : en:2
00:14:20.000 : en:3
00:28:31.000 : en:4
00:41:28.000 : en:5
00:55:39.000 : en:6
01:07:05.000 : en:7
01:15:43.000 : en:8


   Похожие торренты   Торрент   Размер 
В этой теме нет новых непрочитанных сообщений. Плохая кровь: Лягушка-оборотень / Bad Blood: The Movie (2016) WEBRip | L1

18 | 3

1.08 ГБ

В этой теме нет новых непрочитанных сообщений. Бэтмен: Дурная кровь / Batman: Bad Blood (2016) WEB-DLRip | Sub

811 | 30

552.14 МБ

В этой теме нет новых непрочитанных сообщений. Бэтмен: Дурная кровь / Batman: Bad Blood (2016) WEB-DLRip 720p | L2

238 | 16

858.9 МБ

В этой теме нет новых непрочитанных сообщений. Бэтмен: Дурная Кровь / Batman: Bad Blood (2016) BDRip 1080p | Saint Sound & Viruse Project

326 | 60

5.14 ГБ

В этой теме нет новых непрочитанных сообщений. Бэтмен: Дурная Кровь / Batman: Bad Blood (2016) WebRip 1080p | Saint Sound & Viruse Project

327 | 29

1.31 ГБ

В этой теме нет новых непрочитанных сообщений. Бэтмен: Дурная кровь / Batman: Bad blood (Джей Олива) [2016, мультфильм, фантастика, боевик, WEBRip 1080p] SUB

91 | 7

1.59 ГБ

В этой теме нет новых непрочитанных сообщений. Плохая партия / The Bad Batch (2016) BDRemux 1080p от ExKinoRay | L1

5 | 0

30.88 ГБ




Вы не можете начинать темы
Вы не можете отвечать на сообщения
Вы не можете редактировать свои сообщения
Вы не можете удалять свои сообщения
Вы не можете добавлять вложения

Перейти:  
Контактная информация: rstracker[пёсик]yandex.ru
 Вход
ppkBB3cker v.2 © 2008-2014 @ PPK
[ Time : 0.026s | 17 Queries | GZIP : Off ]

cron