img image001 image001 image001 image001 image001 image001 image001 image001 image001 image001 image001 image001 image001 image001 image001 image001

Planets Sun Sun Sun
Статистика раздачи
Автор: Nickolas3434 | Размер: 6.62 ГБ | Добавлен: 24 окт 2017
Раздают: 0    Качают: 4
Скачать торрент
Скачать торрент
Описание торрента

СообщениеДобавлено: 24 окт 2017 

Информация о фильме
Название: Роксана
Оригинальное название: Roxanne
Год выпуска: 1987
Жанр: мелодрама, комедия
Выпущено: США, Columbia Pictures Industries Inc, IndieProd Company Productions, L.A. Films
Продолжительность: 01:46:50
Перевод: Профессиональный многоголосый, профессиональный двухголосый, авторский
Режиссер: Фред Скеписи
В ролях: Стив Мартин, Дэрил Ханна, Рик Россович, Шелли Дювалл, Джон Капелос, Фред Уиллард, Макс Александр, Майкл Дж. Поллард, Стив Миттлман, Дэймон Уайанс ст., Мэтт Латтанци, Жан Синсере, Кевин Нилон, Брайан Джордж, Джеффри Джозеф, Меррилин Гэнн, Кэролин Барклай, Шандра Бери, Бланш Рубин, Джейн Кэмпбелл, Клер Каплан, Том Керли, Рич Шиднер, Морин Мерфи, Бернадетт Сабат, Хайди Соренсон, Хоуп Норт

О фильме:
Современное переложение пьесы Эдмона Ростана "Сирано де Бержерак".
Судьба довольно жестоко подшутила над пожарным Си Ди Бэйлзом, наградив его вдобавок к большой душе непомерно большим… носом! Все в городке его уважают, но из-за одиозной внешности у него совсем не клеится с женщинами. А ведь сердцу не прикажешь! И когда в городке появляется романтичная и добрая красавица Роксана, герой безнадежно влюбляется в эту прелестную чудачку. Вот только какие у него шансы? — ведь вниманием Роксаны уже завладел местный мачо Крис, подчиненный Бэйлза. Правда, выдающееся косноязычие и неотесанность Криса не дают герою шанс признаться в своих чувствах: Бэйлз, поэт в душе, соглашается тайно вместо него писать Роксане любовные послания. Но когда-нибудь все тайное станет явным.


Файл
Качество: BDRip 720p
Видео: MPEG-4 AVC, 5602 Кбит/сек, 1280x532, 23,976 кадра/сек
Аудио 1: Русский: AC3, 2 ch, 192 Кбит/сек |Профессиональный многоголосый, Видеосервис|
Аудио 2: Русский: AC3, 2 ch, 192 Кбит/сек |Профессиональный многоголосый, ОРТ|
Аудио 3: Русский: AC3, 2 ch, 192 Кбит/сек |Профессиональный многоголосый, РТР|
Аудио 4: Русский: AC3, 2 ch, 192 Кбит/сек |Авторский одноголосый, А. Михалёв|
Аудио 5: Русский: AC3, 2 ch, 192 Кбит/сек |Авторский одноголосый, Л. Володарский|
Аудио 6: Украинский: AC3, 2 ch, 192 Кбит/сек |Профессиональный многоголосый, ICTV|
Аудио 7: Украинский: AC3, 2 ch, 192 Кбит/сек |Профессиональный двухголосый, 2+2|
Аудио 8: Английский: AC3, 6 ch, 640 Кбит/сек |Оригинал|
Аудио 9: Итальянский: AC3, 6 ch, 640 Кбит/сек |Профессиональный многоголосый|
Аудио 10: Испанский: AC3, 6 ch, 640 Кбит/сек |Профессиональный многоголосый|
Субтитры: Русские, английские, немецкие
Навигация по главам: есть

Релиз от: mzma




x264 [info]: frame I:925 Avg QP:14.24 size: 155841
x264 [info]: frame P:27278 Avg QP:17.47 size: 63427
x264 [info]: frame B:125493 Avg QP:19.78 size: 20993
-------------------------------------------------------------------------
Общее
Уникальный идентификатор : 177813653006244398254340066939263475644 (0x85C5A9F456ACC09396D1E436B09F5FBC)
Полное имя : Roxanne.1987.BDRip.720p.KORSAR.mkv
Формат : Matroska
Версия формата : Version 2
Размер файла : 6,62 Гбайт
Продолжительность : 1 ч. 46 м.
Общий поток : 8870 Кбит/сек
Дата кодирования : UTC 2017-06-20 12:25:30
Программа кодирования : mkvmerge v5.8.0 ('No Sleep / Pillow') built on Sep 2 2012 15:37:04
Библиотека кодирования : libebml v1.2.3 + libmatroska v1.3.0
Видео
Идентификатор : 1
Формат : AVC
Формат/Информация : Advanced Video Codec
Профиль формата : High@L4.1
Параметр CABAC формата : Да
Параметр ReFrames формата : 12 кадров
Идентификатор кодека : V_MPEG4/ISO/AVC
Продолжительность : 1 ч. 46 м.
Битрейт : 5602 Кбит/сек
Ширина : 1280 пикселей
Высота : 532 пикселя
Соотношение сторон : 2,40:1
Режим частоты кадров : Постоянный
Частота кадров : 23,976 (24000/1001) кадра/сек
Цветовое пространство : YUV
Субдискретизация насыщенности : 4:2:0
Битовая глубина : 8 бит
Тип развёртки : Прогрессивная
Бит/(Пиксели*Кадры) : 0.343
Размер потока : 4,05 Гбайт (61%)
Заголовок : RIP | MZMA
Библиотека кодирования : x264 core 150 r2833kMod df79067
Настройки программы : cabac=1 / ref=12 / deblock=1:-1:-1 / analyse=0x3:0x113 / me=umh / subme=11 / psy=1 / fade_compensate=0.00 / psy_rd=1.00:0.00 / mixed_ref=1 / me_range=48 / chroma_me=1 / trellis=2 / 8x8dct=1 / cqm=0 / deadzone=21,11 / fast_pskip=0 / chroma_qp_offset=-2 / threads=6 / lookahead_threads=1 / sliced_threads=0 / nr=0 / decimate=0 / interlaced=0 / bluray_compat=0 / constrained_intra=0 / bframes=16 / b_pyramid=2 / b_adapt=2 / b_bias=0 / direct=3 / weightb=1 / open_gop=0 / weightp=2 / keyint=250 / keyint_min=23 / scenecut=40 / intra_refresh=0 / rc_lookahead=60 / rc=2pass / mbtree=1 / bitrate=5602 / ratetol=1.0 / qcomp=0.60 / qpmin=0 / qpmax=69 / qpstep=4 / cplxblur=20.0 / qblur=0.5 / vbv_maxrate=50000 / vbv_bufsize=62500 / nal_hrd=none / filler=0 / ip_ratio=1.40 / aq=3:1.00
Язык : English
Default : Да
Forced : Нет
Цветовой диапазон : Limited
Основные цвета : BT.709
Характеристики трансфера : BT.709
Коэффициенты матрицы : BT.709
Аудио #1
Идентификатор : 2
Формат : AC-3
Формат/Информация : Audio Coding 3
Параметр Endianness формата : Big
Идентификатор кодека : A_AC3
Продолжительность : 1 ч. 46 м.
Вид битрейта : Постоянный
Битрейт : 192 Кбит/сек
Каналы : 2 канала
Расположение каналов : Front: L R
Частота : 48,0 КГц
Частота кадров : 31,250 кадров/сек (1536 spf)
Битовая глубина : 16 бит
Метод сжатия : С потерями
Размер потока : 147 Мбайт (2%)
Заголовок : MVO | ВидеоСервис
Язык : Russian
Default : Да
Forced : Нет
Аудио #2
Идентификатор : 3
Формат : AC-3
Формат/Информация : Audio Coding 3
Параметр Endianness формата : Big
Идентификатор кодека : A_AC3
Продолжительность : 1 ч. 46 м.
Вид битрейта : Постоянный
Битрейт : 192 Кбит/сек
Каналы : 2 канала
Расположение каналов : Front: L R
Частота : 48,0 КГц
Частота кадров : 31,250 кадров/сек (1536 spf)
Битовая глубина : 16 бит
Метод сжатия : С потерями
Размер потока : 147 Мбайт (2%)
Заголовок : MVO | ОРТ
Язык : Russian
Default : Нет
Forced : Нет
Аудио #3
Идентификатор : 4
Формат : AC-3
Формат/Информация : Audio Coding 3
Параметр Endianness формата : Big
Идентификатор кодека : A_AC3
Продолжительность : 1 ч. 46 м.
Вид битрейта : Постоянный
Битрейт : 192 Кбит/сек
Каналы : 2 канала
Расположение каналов : Front: L R
Частота : 48,0 КГц
Частота кадров : 31,250 кадров/сек (1536 spf)
Битовая глубина : 16 бит
Метод сжатия : С потерями
Размер потока : 147 Мбайт (2%)
Заголовок : MVO | РТР
Язык : Russian
Default : Нет
Forced : Нет
Аудио #4
Идентификатор : 5
Формат : AC-3
Формат/Информация : Audio Coding 3
Параметр Endianness формата : Big
Идентификатор кодека : A_AC3
Продолжительность : 1 ч. 46 м.
Вид битрейта : Постоянный
Битрейт : 192 Кбит/сек
Каналы : 2 канала
Расположение каналов : Front: L R
Частота : 48,0 КГц
Частота кадров : 31,250 кадров/сек (1536 spf)
Битовая глубина : 16 бит
Метод сжатия : С потерями
Размер потока : 147 Мбайт (2%)
Заголовок : AVO | А. Михалёв
Язык : Russian
Default : Нет
Forced : Нет
Аудио #5
Идентификатор : 6
Формат : AC-3
Формат/Информация : Audio Coding 3
Параметр Endianness формата : Big
Идентификатор кодека : A_AC3
Продолжительность : 1 ч. 46 м.
Вид битрейта : Постоянный
Битрейт : 192 Кбит/сек
Каналы : 2 канала
Расположение каналов : Front: L R
Частота : 48,0 КГц
Частота кадров : 31,250 кадров/сек (1536 spf)
Битовая глубина : 16 бит
Метод сжатия : С потерями
Размер потока : 147 Мбайт (2%)
Заголовок : AVO | Л. Володарский
Язык : Russian
Default : Нет
Forced : Нет
Аудио #6
Идентификатор : 7
Формат : AC-3
Формат/Информация : Audio Coding 3
Параметр Endianness формата : Big
Идентификатор кодека : A_AC3
Продолжительность : 1 ч. 46 м.
Вид битрейта : Постоянный
Битрейт : 192 Кбит/сек
Каналы : 2 канала
Расположение каналов : Front: L R
Частота : 48,0 КГц
Частота кадров : 31,250 кадров/сек (1536 spf)
Битовая глубина : 16 бит
Метод сжатия : С потерями
Размер потока : 147 Мбайт (2%)
Заголовок : MVO | ICTV
Язык : Ukrainian
Default : Нет
Forced : Нет
Аудио #7
Идентификатор : 8
Формат : AC-3
Формат/Информация : Audio Coding 3
Параметр Endianness формата : Big
Идентификатор кодека : A_AC3
Продолжительность : 1 ч. 46 м.
Вид битрейта : Постоянный
Битрейт : 192 Кбит/сек
Каналы : 2 канала
Расположение каналов : Front: L R
Частота : 48,0 КГц
Частота кадров : 31,250 кадров/сек (1536 spf)
Битовая глубина : 16 бит
Метод сжатия : С потерями
Размер потока : 147 Мбайт (2%)
Заголовок : DVO | 2+2
Язык : Ukrainian
Default : Нет
Forced : Нет
Аудио #8
Идентификатор : 9
Формат : AC-3
Формат/Информация : Audio Coding 3
Параметр Endianness формата : Big
Идентификатор кодека : A_AC3
Продолжительность : 1 ч. 46 м.
Вид битрейта : Постоянный
Битрейт : 640 Кбит/сек
Каналы : 6 каналов
Расположение каналов : Front: L C R, Side: L R, LFE
Частота : 48,0 КГц
Частота кадров : 31,250 кадров/сек (1536 spf)
Битовая глубина : 16 бит
Метод сжатия : С потерями
Размер потока : 489 Мбайт (7%)
Заголовок : Original
Язык : English
Default : Нет
Forced : Нет
Аудио #9
Идентификатор : 10
Формат : AC-3
Формат/Информация : Audio Coding 3
Параметр Endianness формата : Big
Идентификатор кодека : A_AC3
Продолжительность : 1 ч. 46 м.
Вид битрейта : Постоянный
Битрейт : 640 Кбит/сек
Каналы : 6 каналов
Расположение каналов : Front: L C R, Side: L R, LFE
Частота : 48,0 КГц
Частота кадров : 31,250 кадров/сек (1536 spf)
Битовая глубина : 16 бит
Метод сжатия : С потерями
Размер потока : 489 Мбайт (7%)
Заголовок : MVO
Язык : Italian
Default : Нет
Forced : Нет
Аудио #10
Идентификатор : 11
Формат : AC-3
Формат/Информация : Audio Coding 3
Параметр Endianness формата : Big
Идентификатор кодека : A_AC3
Продолжительность : 1 ч. 46 м.
Вид битрейта : Постоянный
Битрейт : 640 Кбит/сек
Каналы : 6 каналов
Расположение каналов : Front: L C R, Side: L R, LFE
Частота : 48,0 КГц
Частота кадров : 31,250 кадров/сек (1536 spf)
Битовая глубина : 16 бит
Метод сжатия : С потерями
Размер потока : 489 Мбайт (7%)
Заголовок : MVO
Язык : Spanish
Default : Нет
Forced : Нет
Текст #1
Идентификатор : 12
Формат : UTF-8
Идентификатор кодека : S_TEXT/UTF8
Идентификатор кодека/Информация : UTF-8 Plain Text
Язык : Russian
Default : Нет
Forced : Нет
Текст #2
Идентификатор : 13
Формат : UTF-8
Идентификатор кодека : S_TEXT/UTF8
Идентификатор кодека/Информация : UTF-8 Plain Text
Язык : English
Default : Нет
Forced : Нет
Текст #3
Идентификатор : 14
Формат : UTF-8
Идентификатор кодека : S_TEXT/UTF8
Идентификатор кодека/Информация : UTF-8 Plain Text
Язык : German
Default : Нет
Forced : Нет
Меню
00:00:00.000 : en:Chapter 1
00:06:58.334 : en:Chapter 2
00:15:20.628 : en:Chapter 3
00:22:43.779 : en:Chapter 4
00:27:34.527 : en:Chapter 5
00:31:29.345 : en:Chapter 6
00:37:56.399 : en:Chapter 7
00:44:01.555 : en:Chapter 8
00:49:01.813 : en:Chapter 9
00:55:09.347 : en:Chapter 10
01:00:32.920 : en:Chapter 11
01:06:05.544 : en:Chapter 12
01:18:07.891 : en:Chapter 13
01:21:43.356 : en:Chapter 14
01:28:08.700 : en:Chapter 15
01:30:49.318 : en:Chapter 16



   Похожие торренты   Торрент   Размер 
В этой теме нет новых непрочитанных сообщений. Роксана / Roxanne (1987) BDRip-AVC

0 | 1

2.12 ГБ

В этой теме нет новых непрочитанных сообщений. Роксана / Roxanne (1987) BDRip от HQCLUB

34 | 3

1.45 ГБ

В этой теме нет новых непрочитанных сообщений. Роксана / Roxanne (1987) BDRip-AVC от Rulya74

86 | 11

1.37 ГБ

В этой теме нет новых непрочитанных сообщений. Погоня за Бенджи / Benji the Hunted (1987) WEB-DLRip 720p от KORSAR | D, P

1 | 0

6.98 ГБ

В этой теме нет новых непрочитанных сообщений. Взять живым или мертвым / Wanted: Dead or Alive (1987) BDRip 720р от KORSAR | P, P2, P1, A

2 | 2

6.47 ГБ

В этой теме нет новых непрочитанных сообщений. Друг (1987) DVDRip-AVC от KORSAR

26 | 2

1.53 ГБ

В этой теме нет новых непрочитанных сообщений. Выбор (1987) DVDRip-AVC от KORSAR

1 | 0

2.68 ГБ




Вы не можете начинать темы
Вы не можете отвечать на сообщения
Вы не можете редактировать свои сообщения
Вы не можете удалять свои сообщения
Вы не можете добавлять вложения

Перейти:  
 Вход
ppkBB3cker v.2 © 2008-2014 @ PPK
[ Time : 2.027s | 15 Queries | GZIP : Off ]

cron