img image001 image001 image001 image001 image001 image001 image001 image001 image001 image001 image001 image001 image001 image001 image001 image001

Planets Sun Sun Sun
Статистика раздачи
Автор: Nickolas3434 | Размер: 2.8 ГБ | Добавлен: 29 окт 2017
Раздают: 8    Качают: 0
Скачать торрент
Скачать торрент
Описание торрента

СообщениеДобавлено: 29 окт 2017 

Год выпуска: 25 июля 2007
Оригинальное название: The Bourne Ultimatum
Страна: США, Германия
Жанр: боевик, триллер, детектив
Возраст: 16+
Режиссер: Пол Гринграсс
В ролях: Мэтт Дэймон, Джулия Стайлз, Дэвид Стрэтэйрн, Скотт Гленн, Пэдди Консидайн, Эдгар Рамирес, Альберт Финни, Джоан Аллен, Том Гэллоп, Кори Джонсон, Даниэль Брюль, Джои Анса, Колин Стинтон, Дэн Фреденбёрг, Люси Лиманн, Брайан Ринтс, Арки Аломар, Джон Роберсон
Описание: Он хотел одного — исчезнуть. Вместо этого за Борном теперь охотятся люди, которые сделали его таким, какой он есть. Он потерял память и человека, которого он любил. Но его не удается сдержать даже новому поколению профессиональных убийц. У него только одна цель: вернуться к началу и узнать кем он был, Джейсон Борн.
Он мечется от Москвы к Парижу, через Мадрид и Лондон в Танжер и Нью-Йорк, пытаясь раскрыть последние загадки своего прошлого, в то время, как правительственные агенты и Интерпол пытаются помешать ему восстановить всю картину до конца.
Продолжительность: 01:55:19
Перевод: Дублированный
Оригинальная дорожка: есть
Автор рипа:
Качество видео: BDRip 720p Исходник: Blu-Ray Remux (1080p) Формат: mp4
Видео кодек: MPEG-4 AVC Аудио кодек: AAC
Видео: 1280x534 (2.40:1) at 23.976 fps, AVC at 3 209 kbps avg, 0.196 bit/pixel
Аудио №1 Rus: 48.0 KHz, AAC, 2 ch, 128.0 Kbps
Аудио №2 Eng: 48.0 KHz, AAC, 2 ch, 128.0 Kbps
Субтитры: русские (полные), английские (полные)
Навигация по главам: есть
Размер: 2.80 GiB
avs [info]: 1280x534p 1:1 @ 24000/1001 fps (cfr)
x264 [info]: using SAR=1/1
x264 [info]: using cpu capabilities: MMX2 SSE2Fast SSSE3 Cache64
x264 [info]: profile High, level 4.1
x264 [info]: frame I:1171 Avg QP:16.22 size: 85422
x264 [info]: frame P:41306 Avg QP:19.76 size: 26838
x264 [info]: frame B:123421 Avg QP:21.23 size: 12695
x264 [info]: consecutive B-frames: 3.6% 6.8% 9.0% 26.9% 9.5% 35.6% 2.4% 2.7% 0.8% 2.1% 0.5%
x264 [info]: mb I I16..4: 7.2% 76.4% 16.4%
x264 [info]: mb P I16..4: 2.9% 17.8% 2.1% P16..4: 39.2% 17.8% 11.5% 0.0% 0.0% skip: 8.6%
x264 [info]: mb B I16..4: 0.2% 2.0% 0.2% B16..8: 45.2% 9.5% 2.0% direct: 6.8% skip:34.0% L0:46.6% L1:47.7% BI: 5.8%
x264 [info]: 8x8 transform intra:79.0% inter:69.8%
x264 [info]: coded y,uvDC,uvAC intra: 76.2% 74.0% 38.6% inter: 28.6% 27.7% 1.5%
x264 [info]: i16 v,h,dc,p: 35% 27% 6% 31%
x264 [info]: i8 v,h,dc,ddl,ddr,vr,hd,vl,hu: 17% 14% 28% 5% 7% 7% 7% 7% 7%
x264 [info]: i4 v,h,dc,ddl,ddr,vr,hd,vl,hu: 26% 20% 16% 5% 8% 8% 7% 5% 4%
x264 [info]: i8c dc,h,v,p: 52% 21% 20% 7%
x264 [info]: Weighted P-Frames: Y:3.7% UV:1.9%
x264 [info]: ref P L0: 50.4% 10.2% 15.3% 7.0% 4.8% 3.8% 3.9% 2.4% 1.9% 0.2% 0.0%
x264 [info]: ref B L0: 77.2% 10.1% 5.3% 2.5% 2.0% 1.4% 1.2% 0.3%
x264 [info]: ref B L1: 94.2% 5.8%
x264 [info]: kb/s:3208.87
encoded 165898 frames, 1.50 fps, 3208.87 kb/s

General
Complete name : ...Ultimatum_borna_2007_KinoGadget.mp4
Format : MPEG-4
Format profile : Base Media
Codec ID : isom (isom)
File size : 2.80 GiB
Duration : 1 h 55 min
Overall bit rate mode : Variable
Overall bit rate : 3 476 kb/s
Movie name : Ультиматум Борна | KinoGadget
Performer : Пол Гринграсс
Director : Пол Гринграсс
Actor : Мэтт Дэймон / Джулия Стайлз / Дэвид Стрэтэйрн / Скотт Гленн / Пэдди Консидайн / Эдгар Рамирес / Альберт Финни / Джоан Аллен / Том Гэллоп / Кори Джонсон / Даниэль Брюль / Джои Анса / Колин Стинтон / Дэн Фреденбёрг / Люси Лиманн / Брайан Ринтс / Арки Аломар
Screenplay by : Тони Гилрой / Скотт З. Бёрнс / Джордж Нолфи
Producer : Патрик Краули / Фрэнк Маршалл / Закария Алауи
Genre : Action, Thriller
ContentType : Short Film
Recorded date : 2007
Encoded date : UTC 2017-10-28 06:14:51
Tagged date : UTC 2017-10-28 08:05:20
Cover : Yes
ContentRating : mpaa|PG-13|300|
LongDeion : Он хотел одного — исчезнуть. Вместо этого за Борном теперь охотятся люди, которые сделали его таким, какой он есть. Он потерял память и человека, которого он любил. Но его не удается сдержать даже новому поколению профессиональных убийц. У него только одна цель: вернуться к началу и узнать кем он был, Джейсон Борн. / / Он мечется от Москвы к Парижу, через Мадрид и Лондон в Танжер и Нью-Йорк, пытаясь раскрыть последние загадки своего прошлого, в то время, как правительственные агенты и Интерпол пытаются помешать ему восстановить всю картину до конца.
HDVideo : Yes
Video
ID : 1
Format : AVC
Format/Info : Advanced Video Codec
Format profile : High@L4.1
Format settings, CABAC : Yes
Format settings, ReFrames : 9 frames
Codec ID : avc1
Codec ID/Info : Advanced Video Coding
Duration : 1 h 55 min
Bit rate : 3 209 kb/s
Maximum bit rate : 13.2 Mb/s
Width : 1 280 pixels
Height : 534 pixels
Display aspect ratio : 2.40:1
Frame rate mode : Constant
Frame rate : 23.976 (24000/1001) FPS
Color space : YUV
Chroma subsampling : 4:2:0
Bit depth : 8 bits
Scan type : Progressive
Bits/(Pixel*Frame) : 0.196
Stream size : 2.58 GiB (92%)
Writing library : x264 core 148 r2744 b97ae06
Encoding settings : cabac=1 / ref=9 / deblock=1:-2:-1 / analyse=0x3:0x113 / me=umh / subme=7 / psy=1 / psy_rd=1.00:0.00 / mixed_ref=1 / me_range=32 / chroma_me=1 / trellis=2 / 8x8dct=1 / cqm=0 / deadzone=21,11 / fast_pskip=0 / chroma_qp_offset=-2 / threads=3 / lookahead_threads=1 / sliced_threads=0 / nr=0 / decimate=1 / interlaced=0 / bluray_compat=0 / constrained_intra=0 / bframes=10 / b_pyramid=2 / b_adapt=2 / b_bias=0 / direct=1 / weightb=1 / open_gop=0 / weightp=2 / keyint=250 / keyint_min=25 / scenecut=40 / intra_refresh=0 / rc_lookahead=60 / rc=crf / mbtree=1 / crf=19.0 / qcomp=0.60 / qpmin=0 / qpmax=69 / qpstep=4 / vbv_maxrate=62500 / vbv_bufsize=78125 / crf_max=0.0 / nal_hrd=none / filler=0 / ip_ratio=1.40 / aq=1:1.00
Encoded date : UTC 2017-10-28 01:10:11
Tagged date : UTC 2017-10-28 06:17:51
Audio #1
ID : 2
Format : AAC
Format/Info : Advanced Audio Codec
Format profile : LC
Codec ID : 40
Duration : 1 h 55 min
Bit rate mode : Variable
Bit rate : 128 kb/s
Maximum bit rate : 135 kb/s
Channel(s) : 2 channels
Channel positions : Front: L R
Sampling rate : 48.0 kHz
Frame rate : 46.875 FPS (1024 spf)
Compression mode : Lossy
Stream size : 106 MiB (4%)
Language : Russian
Encoded date : UTC 2017-10-28 01:32:13
Tagged date : UTC 2017-10-28 06:17:51
Audio #2
ID : 3
Format : AAC
Format/Info : Advanced Audio Codec
Format profile : LC
Codec ID : 40
Duration : 1 h 55 min
Bit rate mode : Variable
Bit rate : 128 kb/s
Maximum bit rate : 135 kb/s
Channel(s) : 2 channels
Channel positions : Front: L R
Sampling rate : 48.0 kHz
Frame rate : 46.875 FPS (1024 spf)
Compression mode : Lossy
Stream size : 106 MiB (4%)
Language : English
Encoded date : UTC 2017-10-28 01:43:45
Tagged date : UTC 2017-10-28 06:17:51
Text #1
ID : 4
Format : Timed Text
Codec ID : tx3g
Duration : 1 h 45 min
Bit rate mode : Variable
Bit rate : 66 b/s
Stream size : 51.4 KiB (0%)
Language : Russian
Forced : No
Encoded date : UTC 2017-10-28 06:17:50
Tagged date : UTC 2017-10-28 06:17:51
Text #2
ID : 5
Format : Timed Text
Codec ID : tx3g
Duration : 1 h 45 min
Bit rate mode : Variable
Bit rate : 48 b/s
Stream size : 37.1 KiB (0%)
Language : English
Forced : No
Encoded date : UTC 2017-10-28 06:17:51
Tagged date : UTC 2017-10-28 06:17:51
Menu
00:00:00.000 : 00:00:00.000
00:05:00.000 : 00:05:00.000
00:10:00.000 : 00:10:00.000
00:15:00.000 : 00:15:00.000
00:20:00.000 : 00:20:00.000
00:25:00.000 : 00:25:00.000
00:30:00.000 : 00:30:00.000
00:35:00.000 : 00:35:00.000
00:40:00.000 : 00:40:00.000
00:45:00.000 : 00:45:00.000
00:50:00.000 : 00:50:00.000
00:55:00.000 : 00:55:00.000
01:00:00.000 : 01:00:00.000
01:05:00.000 : 01:05:00.000
01:10:00.000 : 01:10:00.000
01:15:00.000 : 01:15:00.000
01:20:00.000 : 01:20:00.000
01:25:00.000 : 01:25:00.000
01:30:00.000 : 01:30:00.000
01:35:00.000 : 01:35:00.000
01:40:00.000 : 01:40:00.000
01:45:00.000 : 01:45:00.000
01:50:00.000 : 01:50:00.000
01:55:00.000 : 01:55:00.000



Данный рип предназначен для просмотра на мобильных гаджетах с поддержкой формата mp4



   Похожие торренты   Торрент   Размер 
В этой теме нет новых непрочитанных сообщений. Ультиматум Борна / The Bourne Ultimatum (2007) BDRip 720p от DHT-Movies

84 | 15

5.1 ГБ

В этой теме нет новых непрочитанных сообщений. Ультиматум Борна / The Bourne Ultimatum (2007) BDRip-AVC от MediaClub | D, P2, A

161 | 23

4.62 ГБ

В этой теме нет новых непрочитанных сообщений. Ультиматум Борна / The Bourne Ultimatum (2007) BDRip от HQ-ViDEO

144 | 26

2.9 ГБ

В этой теме нет новых непрочитанных сообщений. Ультиматум Борна / The Bourne Ultimatum (2007) Blu-ray

8 | 10

40.65 ГБ

В этой теме нет новых непрочитанных сообщений. Ультиматум Борна / The Bourne Ultimatum (2007) HDRip

334 | 18

752.83 МБ

В этой теме нет новых непрочитанных сообщений. Ультиматум Борна / The Bourne Ultimatum (2007) DVDRip | КПК от Generalfilm

53 | 4

413.04 МБ

В этой теме нет новых непрочитанных сообщений. Звуковая дорожка - Ультиматум Борна / The Bourne Ultimatum (2007) DTS-HD | D

0 | 3

3.36 ГБ




Вы не можете начинать темы
Вы не можете отвечать на сообщения
Вы не можете редактировать свои сообщения
Вы не можете удалять свои сообщения
Вы не можете добавлять вложения

Перейти:  
 Вход
ppkBB3cker v.2 © 2008-2014 @ PPK
[ Time : 0.034s | 17 Queries | GZIP : Off ]

cron