img image001 image001 image001 image001 image001 image001 image001 image001 image001 image001 image001 image001 image001 image001 image001

Planets Sun Sun Sun

COVID-19 - Последняя информация о коронавирусе на сайте Минздрава


Статистика раздачи
Автор: Nickolas3434 | Размер: 62.39 ГБ | Добавлен: 01 ноя 2017
Раздают: 3    Качают: 3
Скачать торрент
Скачать торрент
Описание торрента

СообщениеДобавлено: 01 ноя 2017 

Производство: США / Marvel Studios Inc.
Жанр: фантастика, боевик, приключения
Режиссер: Джон Фавро
Продюсер: Кевин Файги, Виктория Алонсо, Луис Д’Эспозито
Актеры: Роберт Дауни мл., Микки Рурк, Гвинет Пэлтроу, Дон Чидл, Сэм Рокуэлл, Скарлетт Йоханссон, Кларк Грегг, Сэмюэл Л. Джексон, Джон Слэттери, Гарри Шендлинг
Описание:
Прошло полгода с тех пор, как мир узнал, что миллиардер-изобретатель Тони Старк является обладателем уникальной кибер-брони Железного человека. Общественность требует, чтобы Старк передал технологию брони правительству США, но Тони не хочет разглашать её секреты, потому что боится, что она попадёт не в те руки.
Между тем Иван Ванко — сын русского учёного, когда-то работавшего на фирму Старка, но потом уволенного и лишенного всего, намерен отомстить Тони за беды своей семьи. Для чего сооружает своё высокотехнологичное оружие.

Релиз от: BLUEBIRD
Продолжительность: 02:04:57
Качество: UHD BDRemux (HDR)
Перевод: Дублированный, Авторский (одноголосый, закадровый) (В. Королев, А. Гаврилов)
Субтитры: Русские (Full-length, Forced), Украинские (Full-length, Forced), Английские
Видео: HEVC/H.265, 3840x2160p, (16:9), 56.0 Mb/s, 23.976 FPS
Аудио: DTS-HD MA, 6 ch, 4113 kbps - Русский, Дубляж
Аудио: AC3, 6 ch, 448 kbps - Украинский
Аудио: DTS-HD MA, 6 ch, 3840 kbps - Русский, В. Королев
Аудио: DTS-HD MA, 6 ch, 3840 kbps - Русский, А. Гаврилов
Аудио: DTS-HD MA, 6 ch, 2959 kbps - Английский
General
Unique ID : 237164725688712020398059235176447074386 (0xB26C43C317B7965B8179060E6C4DE052)
Complete name : IRON_MAN2_BD_UHD_HDR_REMUX-BLUEBIRD.mkv
Format : Matroska
Format version : Version 4 / Version 2
File size : 62.4 GiB
Duration : 2 h 4 min
Overall bit rate : 71.5 Mb/s
Movie name : IRON_MAN2_BD_UHD_HDR_REMUX-BLUEBIRD
Encoded date : UTC 2017-10-17 20:15:15
Writing application : mkvmerge v16.0.0 ('Protest') 64-bit
Writing library : libebml v1.3.5 + libmatroska v1.4.8
Cover : Yes
Attachments : cover.png
Video
ID : 1
Format : HEVC
Format/Info : High Efficiency Video Coding
Format profile : Main 10@L5.1@High
Codec ID : V_MPEGH/ISO/HEVC
Duration : 2 h 4 min
Bit rate : 56.0 Mb/s
Width : 3 840 pixels
Height : 2 160 pixels
Display aspect ratio : 16:9
Frame rate mode : Constant
Frame rate : 23.976 (24000/1001) FPS
Original frame rate : 23.976 (23976/1000) FPS
Standard : Component
Color space : YUV
Chroma subsampling : 4:2:0 (Type 2)
Bit depth : 10 bits
Bits/(Pixel*Frame) : 0.282
Stream size : 48.9 GiB (78%)
Title : IRON_MAN2_BD_UHD_HDR_REMUX-BLUEBIRD
Default : Yes
Forced : No
Color range : Limited
Color primaries : BT.2020
Transfer characteristics : SMPTE ST 2084
Matrix coefficients : BT.2020 non-constant
Mastering display color primaries : R: x=0.680000 y=0.320000, G: x=0.265000 y=0.690000, B: x=0.150000 y=0.060000, White point: x=0.312700 y=0.329000
Mastering display luminance : min: 0.0050 cd/m2, max: 1000.0000 cd/m2
Audio #1
ID : 2
Format : DTS
Format/Info : Digital Theater Systems
Format profile : MA / Core
Mode : 16
Format settings, Endianness : Big
Codec ID : A_DTS
Duration : 2 h 4 min
Bit rate mode : Variable / Constant
Bit rate : 4 113 kb/s / 1 509 kb/s
Channel(s) : 6 channels
Channel positions : Front: L C R, Side: L R, LFE
Sampling rate : 48.0 kHz
Frame rate : 93.750 FPS (512 SPF)
Bit depth : 24 bits
Compression mode : Lossless / Lossy
Stream size : 3.59 GiB (6%)
Title : [DUB] DTS-HD 5.1 @ 4114 kbps
Language : Russian
Default : Yes
Forced : No
Audio #2
ID : 3
Format : AC-3
Format/Info : Audio Coding 3
Format settings, Endianness : Big
Codec ID : A_AC3
Duration : 2 h 4 min
Bit rate mode : Constant
Bit rate : 448 kb/s
Channel(s) : 6 channels
Channel positions : Front: L C R, Side: L R, LFE
Sampling rate : 48.0 kHz
Frame rate : 31.250 FPS (1536 SPF)
Bit depth : 16 bits
Compression mode : Lossy
Stream size : 401 MiB (1%)
Title : [DUB] DD 5.1 @ 448 kbps
Language : Ukrainian
Service kind : Complete Main
Default : No
Forced : No
Audio #3
ID : 4
Format : DTS
Format/Info : Digital Theater Systems
Format profile : MA / Core
Mode : 16
Format settings, Endianness : Big
Codec ID : A_DTS
Duration : 2 h 4 min
Bit rate mode : Variable / Constant
Bit rate : 3 840 kb/s / 1 509 kb/s
Channel(s) : 6 channels
Channel positions : Front: L C R, Side: L R, LFE
Sampling rate : 48.0 kHz
Frame rate : 93.750 FPS (512 SPF)
Bit depth : 24 bits
Compression mode : Lossless / Lossy
Stream size : 3.42 GiB (5%)
Title : [VO] DTS-HD 5.1 @ 3918 kbps (Korolev)
Language : Russian
Default : No
Forced : No
Audio #4
ID : 5
Format : DTS
Format/Info : Digital Theater Systems
Format profile : MA / Core
Mode : 16
Format settings, Endianness : Big
Codec ID : A_DTS
Duration : 2 h 4 min
Bit rate mode : Variable / Constant
Bit rate : 3 840 kb/s / 1 509 kb/s
Channel(s) : 6 channels
Channel positions : Front: L C R, Side: L R, LFE
Sampling rate : 48.0 kHz
Frame rate : 93.750 FPS (512 SPF)
Bit depth : 24 bits
Compression mode : Lossless / Lossy
Stream size : 3.42 GiB (5%)
Title : [VO] DTS-HD 5.1 @ 3913 kbps (Gavrilov)
Language : Russian
Default : No
Forced : No
Audio #5
ID : 6
Format : DTS
Format/Info : Digital Theater Systems
Format profile : MA / Core
Mode : 16
Format settings, Endianness : Big
Codec ID : A_DTS
Duration : 2 h 4 min
Bit rate mode : Variable / Constant
Bit rate : 2 959 kb/s / 1 509 kb/s
Channel(s) : 6 channels
Channel positions : Front: L C R, Side: L R, LFE
Sampling rate : 48.0 kHz
Frame rate : 93.750 FPS (512 SPF)
Bit depth : 24 bits
Compression mode : Lossless / Lossy
Stream size : 2.58 GiB (4%)
Title : [ORIGINAL] DTS-HD MA 5.1 @ 2959 kbps
Language : English
Default : No
Forced : No
Text #1
ID : 7
Format : PGS
Codec ID : S_HDMV/PGS
Codec ID/Info : Picture based subtitle format used on BDs/HD-DVDs
Duration : 2 h 4 min
Bit rate : 40.8 kb/s
Count of elements : 3112
Stream size : 36.3 MiB (0%)
Title : Full-length
Language : Russian
Default : No
Forced : No
Text #2
ID : 8
Format : PGS
Codec ID : S_HDMV/PGS
Codec ID/Info : Picture based subtitle format used on BDs/HD-DVDs
Duration : 2 h 4 min
Bit rate : 38.6 kb/s
Count of elements : 3134
Stream size : 34.4 MiB (0%)
Title : Full-length
Language : Ukrainian
Default : No
Forced : No
Text #3
ID : 9
Format : PGS
Codec ID : S_HDMV/PGS
Codec ID/Info : Picture based subtitle format used on BDs/HD-DVDs
Duration : 2 h 4 min
Bit rate : 41.0 kb/s
Count of elements : 3064
Stream size : 36.4 MiB (0%)
Title : Full-length
Language : English
Default : No
Forced : No
Text #4
ID : 10
Format : PGS
Codec ID : S_HDMV/PGS
Codec ID/Info : Picture based subtitle format used on BDs/HD-DVDs
Duration : 2 h 3 min
Bit rate : 369 b/s
Count of elements : 44
Stream size : 334 KiB (0%)
Title : Forced
Language : Russian
Default : Yes
Forced : Yes
Text #5
ID : 11
Format : PGS
Codec ID : S_HDMV/PGS
Codec ID/Info : Picture based subtitle format used on BDs/HD-DVDs
Duration : 2 h 3 min
Bit rate : 356 b/s
Count of elements : 44
Stream size : 322 KiB (0%)
Title : Forced
Language : Ukrainian
Default : No
Forced : No
Menu
00:00:00.000 : en:Chapter 1
00:05:25.157 : en:Chapter 2
00:11:28.855 : en:Chapter 3
00:18:20.641 : en:Chapter 4
00:26:13.697 : en:Chapter 5
00:30:47.470 : en:Chapter 6
00:37:53.688 : en:Chapter 7
00:44:20.825 : en:Chapter 8
00:52:00.033 : en:Chapter 9
01:00:31.544 : en:Chapter 10
01:07:22.205 : en:Chapter 11
01:16:21.451 : en:Chapter 12
01:21:33.971 : en:Chapter 13
01:30:54.240 : en:Chapter 14
01:39:10.026 : en:Chapter 15
01:46:02.481 : en:Chapter 16
01:54:38.038 : en:Chapter 17
01:56:30.858 : en:Chapter 18

Скриншоты:

   Похожие торренты   Торрент   Размер 
В этой теме нет новых непрочитанных сообщений. Железный человек 3 / Iron Man (2013) UHD BDRemux 2160p | 4K | HDR | D

32 | 13

68.28 ГБ

В этой теме нет новых непрочитанных сообщений. Железный человек / Iron Man (2008) UHD BDRemux 2160p | 4K | HDR | D, P, A

5 | 3

64.43 ГБ

В этой теме нет новых непрочитанных сообщений. Человек на Луне / First Man (2018) UHD BDRemux 2160p от ExKinoRay | 4K | HDR | Dolby Vision TV | iTunes

0 | 0

63.15 ГБ

В этой теме нет новых непрочитанных сообщений. Человек из стали / Man of Steel (2013) UHD Blu-ray 2160p | 4K | HDR | Лицензия

9 | 2

73.77 ГБ

В этой теме нет новых непрочитанных сообщений. Человек на Луне / First Man (2018) UHD Blu-ray 2160p от ExKinoRay | 4K | HDR | Dolby Vision | iTunes

0 | 0

84.77 ГБ

В этой теме нет новых непрочитанных сообщений. Гадкий я / Despicable Me (2010) UHD BDRemux 2160p | 4K | HDR | D, P, A | Лицензия

4 | 3

32.88 ГБ

В этой теме нет новых непрочитанных сообщений. Пипец / Kick-Ass (2010) UHD BDRemux 2160p | 4K | HDR | D, A | Лицензия

0 | 10

65.15 ГБ




Вы не можете начинать темы
Вы не можете отвечать на сообщения
Вы не можете редактировать свои сообщения
Вы не можете удалять свои сообщения
Вы не можете добавлять вложения

Перейти:  
Контактная информация: rstracker[пёсик]yandex.ru
 Вход
ppkBB3cker v.2 © 2008-2014 @ PPK
[ Time : 0.036s | 15 Queries | GZIP : Off ]

cron