img image001 image001 image001 image001 image001 image001 image001 image001 image001 image001 image001 image001 image001 image001 image001

Planets Sun Sun Sun

COVID-19 - Последняя информация о коронавирусе на сайте Минздрава


Статистика раздачи
Автор: Nickolas3434 | Размер: 1.87 ГБ | Добавлен: 12 ноя 2017
Раздают: 23    Качают: 0
Скачать торрент
Скачать торрент
Описание торрента

СообщениеДобавлено: 12 ноя 2017 

Информация о фильме
Название: Пролетая над гнездом кукушки
Оригинальное название: One Flew Over the Cuckoo's Nest
Год выхода: 1975
Жанр: Драма, экранизация
Режиссер: Милош Форман
В ролях: Джек Николсон, Луиз Флетчер, Брэд Дуриф, Уилл Сэмпсон, Дэнни ДеВито, Кристофер Ллойд, Скэтмэн Кроверс, Сидни Лэссик, Уильям Редфилд, Винсент Скьявелли, Уильям Дюэл, Джосип Элик, Лан Фендорс, Натан Джордж, Кен Кенни, Мэл Ламберт, Алонсо Браун, Кэй Ли, Дин Р. Брукс, Дуайт Марфилд, Тед Маркленд, Луиза Мориц, Филип Рот, Майкл Берриман, Мими Саркисян, Питер Брокко, Мьюз Смолл, Делос В. Смит мл., Тинь Уэлш, Муако Кумбука, Анжелика Хьюстон, Том МакКолл, Джеймс В. Шор, Сол Зенц
О фильме:
Экранизация одноимённого романа Кена Кизи. Авантюрист по складу, игрок по призванию и весельчак от Бога - всё это сполна объединил в себе МакМёрфи. И далеко не все его затеи и развлечения бывают созвучны букве закона... В результате очередным способом вволю повеселиться становится идея пересидеть не лучшие в своей бурной жизни времена там, где над ним и сам закон не властен - в сумасшедшем доме. Но вскоре он понимает, что происходящее за лечебными решётками совершенно не вписывается в его весьма отсталые, как оказалось, представления о душевнобольных и их докторах. Он с изумлением узнаёт, что многие из его "компаньонов по безумию" - находятся здесь вполне добровольно, порядки в клинике - едва ли не превосходят тюремные в части насилия над личностью, а закон не писан, увы, не столько дуракам, сколько самому медперсоналу. Особенно - медсестре Рэтчед, которая сама здесь и есть - закон. Несгибаемый МакМёрфи, за сарказмом и куражом которого скрывается глубокая человечность, и неумолимая Рэтчед, для которой медицинская практика - лишь повод и средство сломать, подчинить и построить в шеренги всех и каждого - вступают в моральное противоборство, которое коснётся всех и каждого в этой больнице, в корне и навсегда меняя их жизнь и мировоззрение... Культовый фильм Милоша Формана по культовому роману Кена Кизи великолепно отразил саму суть извечного конфликта между Личностью и Системой.

Файл
Формат: MKV
Качество: BDRip-AVC
Видео: MPEG4-AVC / 896х504 / 1362 kbps / 23,976 fps
Звук: Русский / 6 channels / 640 kbps / AC3 - Матвеев

Релиз: Переулок Переводмана
Format : Matroska
Format version : Version 4 / Version 2
File size : 1.87 GiB
Duration : 2 h 13 min
Overall bit rate : 2 003 kb/s
Movie name : WWW.PEREVODMAN.COM
Encoded date : UTC 2017-11-11 13:29:02
Writing application : mkvmerge v6.0.0 ('Coming Up For Air') built on Jan 20 2013 09:52:00
Writing library : libebml v1.3.0 + libmatroska v1.4.0
Cover : Yes
Attachments : cover.jpg
Video
ID : 1
Format : AVC
Format/Info : Advanced Video Codec
Format profile : High@L4.1
Format settings, CABAC : Yes
Format settings, RefFrames : 13 frames
Codec ID : V_MPEG4/ISO/AVC
Duration : 2 h 13 min
Bit rate : 1 362 kb/s
Width : 896 pixels
Height : 504 pixels
Display aspect ratio : 16:9
Frame rate mode : Constant
Frame rate : 23.976 (24000/1001) FPS
Color space : YUV
Chroma subsampling : 4:2:0
Bit depth : 8 bits
Scan type : Progressive
Bits/(Pixel*Frame) : 0.126
Stream size : 1.24 GiB (66%)
Writing library : x264 core 152 r2851kMod ba24899
Encoding settings : cabac=1 / ref=13 / deblock=1:-2:-2 / analyse=0x3:0x113 / me=umh / subme=10 / psy=1 / fade_compensate=0.00 / psy_rd=1.00:0.00 / mixed_ref=1 / me_range=32 / chroma_me=1 / trellis=2 / 8x8dct=1 / cqm=0 / deadzone=21,11 / fast_pskip=0 / chroma_qp_offset=-2 / threads=12 / lookahead_threads=3 / sliced_threads=0 / nr=0 / decimate=0 / interlaced=0 / bluray_compat=0 / constrained_intra=0 / bframes=13 / b_pyramid=2 / b_adapt=2 / b_bias=0 / direct=1 / weightb=1 / open_gop=0 / weightp=2 / keyint=240 / keyint_min=23 / scenecut=40 / intra_refresh=0 / rc_lookahead=60 / rc=2pass / mbtree=0 / bitrate=1362 / ratetol=1.0 / qcomp=0.60 / qpmin=0 / qpmax=69 / qpstep=4 / cplxblur=20.0 / qblur=0.5 / vbv_maxrate=50000 / vbv_bufsize=62500 / nal_hrd=none / filler=0 / ip_ratio=1.40 / pb_ratio=1.30 / aq=1:1.00
Default : Yes
Forced : No
Audio
ID : 2
Format : AC-3
Format/Info : Audio Coding 3
Format settings, Endianness : Big
Codec ID : A_AC3
Duration : 2 h 13 min
Bit rate mode : Constant
Bit rate : 640 kb/s
Channel(s) : 6 channels
Channel positions : Front: L C R, Side: L R, LFE
Sampling rate : 48.0 kHz
Frame rate : 31.250 FPS (1536 SPF)
Bit depth : 16 bits
Compression mode : Lossy
Stream size : 612 MiB (32%)
Title : AVO А.Матвеев
Language : Russian
Service kind : Complete Main
Default : Yes
Forced : No

   Похожие торренты   Торрент   Размер 
В этой теме нет новых непрочитанных сообщений. Пролетая над гнездом кукушки / One Flew Over the Cuckoo's Nest (1975) BDRip от HQ-ViDEO | P

18 | 0

2.18 ГБ

В этой теме нет новых непрочитанных сообщений. Самые шокирующие гипотезы. Пролетая над гнездом хохлушки! (Эфир от 16.10.2018) [2018, документальный, SATRip]

5 | 1

670.18 МБ

В этой теме нет новых непрочитанных сообщений. Самые шокирующие гипотезы. Пролетая над гнездом хохлушки! (Эфир от 16.10.2018) (Рен ТВ) [2018, документальный, WEB-DLRip]

9 | 0

692.56 МБ

В этой теме нет новых непрочитанных сообщений. Гнездо шершней / Hornets' Nest (1970) BDRip 720p от Koenig

2 | 0

7.05 ГБ

В этой теме нет новых непрочитанных сообщений. Разденься для убийцы / Nude per l'assassino (1975) BDRip-AVC от Koenig | A

0 | 0

2.18 ГБ

В этой теме нет новых непрочитанных сообщений. Гнездо шершней / Hornets' Nest (Фил Карлсон, Франко Кирино) [1970, драма, боевик, военный, BDRip] DVO

0 | 2

1.76 ГБ

В этой теме нет новых непрочитанных сообщений. Гнездо дракона / Dragon Nest: Warriors' Dawn (Юэфэн Сонг) [2014, мультфильм, фэнтези, приключения, семейный, BDRip] DUB

3 | 0

747.71 МБ




Вы не можете начинать темы
Вы не можете отвечать на сообщения
Вы не можете редактировать свои сообщения
Вы не можете удалять свои сообщения
Вы не можете добавлять вложения

Перейти:  
Контактная информация: rstracker[пёсик]yandex.ru
 Вход
ppkBB3cker v.2 © 2008-2014 @ PPK
[ Time : 0.026s | 20 Queries | GZIP : Off ]

cron