img image001 image001 image001 image001 image001 image001 image001 image001 image001 image001 image001 image001 image001 image001 image001

Planets Sun Sun Sun
Статистика раздачи
Автор: Nickolas3434 | Размер: 4.35 ГБ | Добавлен: 13 ноя 2017
Раздают: 2    Качают: 1
Скачать торрент
Скачать торрент
Описание торрента

СообщениеДобавлено: 13 ноя 2017 

Год выпуска: 2013
Производство: США, Канада, Великобритания / Warner Bros. Pictures, Legendary Pictures, DC Entertainment, Syncopy
Жанр: Фантастика, фэнтези, боевик, приключения
Режиссер: Зак Снайдер
Продюсеры: Кристофер Нолан, Чарльз Ровен, Дебора Снайдер
Актеры: Генри Кавилл, Эми Адамс, Майкл Шеннон, Рассел Кроу, Дайан Лэйн, Кевин Костнер, Антье Трауэ, Лоренс Фишбёрн, Кристофер Мелони, Гарри Дж. Ленникс
Описание:
Кларк Кент/Кал-Эл — молодой человек, который чувствует себя чужаком из-за своей невероятной силы. Много лет назад он был отправлен на Землю с развитой планеты Криптон, и теперь задается вопросом: зачем?
Воспитанный приемными родителями Мартой и Джонатаном Кентами, Кларк знает: обладать сверхспособностями — значит принимать сложные решения. Но когда человечество более всего нуждается в стабильности, оно подвергается нападению. Сможет ли герой восстановить мир, или воспользуется своей силой для того, чтобы окончательно его разрушить?
Перевод: Дублированный
Субтитры: Русские, английские

Дата мировой премьеры: 10 июня 2013
Дата российской премьеры: 20 июня 2013, «Каро-Премьер»
Дата выхода DVD/Blu-Ray релиза: 24 октября 2013, «CP Дистрибуция»

Продолжительность: 02:17:11
Качество видео: DVD5 [BD -> DVD]
Видео: MPEG-2, 720x576@1024x576 (PAL 16:9), ~3500 Кбит/сек
Аудио 1: AC3 5.1, 448 Кбит/сек [Русский - дублированный]
Аудио 2: AC3 5.1, 448 Кбит/сек [Английский - оригинал]
Title: Man of Steel (2013) DVD5 [BD-DVD]
Size: 4.35 Gb ( 4 566 454,00 KBytes ) - DVD-5
Enabled regions: 1, 2, 3, 4, 5, 6, 7, 8
VTS_01 :
Play Length: 02:17:11
Video: PAL 16:9 (720x576) VBR, Auto Letterboxed
Audio:
Russian (Dolby AC3, 6 ch)
English (Dolby AC3, 6 ch)
Subtitles:
Russian
English
Russian
* Menus Information *
VIDEO_TS Menu
Video:
PAL 16:9 (720x576) VBR
Auto Letterboxed
Audio:
Not specified (Dolby AC3, 6 ch)
English Language Unit :
Title Menu
VTS_01 Menu
Video:
PAL 16:9 (720x576) VBR
Auto Letterboxed
Audio:
Not specified (Dolby AC3, 2 ch)
English Language Unit :
Root Menu
Видео
Идентификатор : 224 (0xE0)
Формат : MPEG Video
Версия формата : Version 2
Профиль формата : Main@Main
Настройки формата : CustomMatrix / BVOP
Параметр BVOP формата : Да
Параметр матрицы формата : Выборочная
Параметр GOP формата : Variable
Продолжительность : 31 м. 19 с.
Вид битрейта : Переменный
Битрейт : 3584 Кбит/сек
Максимальный битрейт : 8900 Кбит/сек
Ширина : 720 пикселей
Высота : 576 пикселей
Соотношение сторон : 16:9
Частота кадров : 25,000 кадров/сек
Стандарт вещания : PAL
Цветовое пространство : YUV
Субдискретизация насыщенности : 4:2:0
Битовая глубина : 8 бит
Тип развёртки : Прогрессивная
Метод сжатия : С потерями
Бит/(Пиксели*Кадры) : 0.346
Временной код первого кадра : 00:00:00:00
Оригинал временного кода : Group of pictures header
GOP, открыто/закрыто : Открыто
GOP, открыто/закрыто на первом кадре : Закрыто
Размер потока : 803 Мбайт (78%)
Аудио #1
Идентификатор : 189 (0xBD)-128 (0x80)
Формат : AC-3
Формат/Информация : Audio Coding 3
Параметр Endianness формата : Big
Режим смешивания : DVD-Video
Продолжительность : 31 м. 18 с.
Вид битрейта : Постоянный
Битрейт : 448 Кбит/сек
Каналы : 6 каналов
Расположение каналов : Front: L C R, Side: L R, LFE
Частота : 48,0 КГц
Частота кадров : 31,250 кадров/сек (1536 SPF)
Битовая глубина : 16 бит
Метод сжатия : С потерями
Размер потока : 100 Мбайт (10%)
ServiceKind : Complete Main
Аудио #2
Идентификатор : 189 (0xBD)-129 (0x81)
Формат : AC-3
Формат/Информация : Audio Coding 3
Параметр Endianness формата : Big
Режим смешивания : DVD-Video
Продолжительность : 31 м. 18 с.
Вид битрейта : Постоянный
Битрейт : 448 Кбит/сек
Каналы : 6 каналов
Расположение каналов : Front: L C R, Side: L R, LFE
Частота : 48,0 КГц
Частота кадров : 31,250 кадров/сек (1536 SPF)
Битовая глубина : 16 бит
Метод сжатия : С потерями
Размер потока : 100 Мбайт (10%)
ServiceKind : Complete Main
Текст #1
Идентификатор : 189 (0xBD)-32 (0x20)
Формат : RLE
Формат/Информация : Run-length encoding
Режим смешивания : DVD-Video
Текст #2
Идентификатор : 189 (0xBD)-33 (0x21)
Формат : RLE
Формат/Информация : Run-length encoding
Режим смешивания : DVD-Video
Меню
Источником видео и звуковых дорог послужил Blu-Ray. Субтитры, главы и фрагменты меню взял с DVD. Видео обрабатывалось с помощью CarbonCoder в VBR в два прохода. Звуковые дорожки обрабатывались в Sony Vegas. Меню обрабатывал с помощью Adobe Photoshop, Adobe Encore и DvdReMakePro.



   Похожие торренты   Торрент   Размер 
В этой теме нет новых непрочитанных сообщений. Человек из стали / Man of Steel (2013) TS

17 | 3

2.03 ГБ

В этой теме нет новых непрочитанных сообщений. Человек из стали / Man of Steel (2013) TS

1 | 7

720.97 МБ

В этой теме нет новых непрочитанных сообщений. Человек из стали / Man of Steel (2013) BDRip-AVC | D, A

69 | 24

4.46 ГБ

В этой теме нет новых непрочитанных сообщений. Человек из стали / Man of Steel (2013) CAMRip

19 | 7

1.46 ГБ

В этой теме нет новых непрочитанных сообщений. Человек из стали / Man of Steel (2013) BDRip | D, A

130 | 46

3.93 ГБ

В этой теме нет новых непрочитанных сообщений. Человек из стали / Man of Steel (2013) HD 1080p | Тизер | D

3 | 2

69.41 МБ

В этой теме нет новых непрочитанных сообщений. Человек из стали / Man of Steel (2013) HD 1080p | Трейлер

1 | 2

58.45 МБ




Вы не можете начинать темы
Вы не можете отвечать на сообщения
Вы не можете редактировать свои сообщения
Вы не можете удалять свои сообщения
Вы не можете добавлять вложения

Перейти:  
Для Мосгорсуда, Роскомнадзора и рекламодателей: mosgorsud-torrent[собачка]yandex.ru
 Вход
ppkBB3cker v.2 © 2008-2014 @ PPK
[ Time : 0.063s | 19 Queries | GZIP : Off ]

cron