img image001 image001 image001 image001 image001 image001 image001 image001 image001 image001 image001 image001 image001 image001 image001

Planets Sun Sun Sun
Статистика раздачи
Автор: Снежана | Размер: 6.63 ГБ | Добавлен: 22 июл 2013
Раздают: 33    Качают: 17
Скачать торрент
Скачать торрент
Описание торрента

СообщениеДобавлено: 22 июл 2013 

#77

Информация о фильме
Название: Конан-варвар
Оригинальное название: Conan the Barbarian
Год выхода: 1982
Жанр: фэнтези, боевик, приключения
Режиссер: Джон Милиус
В ролях: Арнольд Шварценеггер, Джеймс Эрл Джонс, Макс фон Сюдов, Сэндал Бергман, Бен Дэвидсон, Кассандра Гава, Джерри Лопес, Мако, Валери Кеннессен, Уильям Смит

О фильме:
В детстве Конан стал свидетелем жестокого убийства своих родителей беспощадным Тулса Думом. Его обезумевшие от запаха крови солдаты разорили и сожгли до тла родную деревню Конана. Мальчик выростает в рабстве и превращается в обладающего неимоверной силой и мышечной массой непобедимого воина.

Поклявшись отомстить за родителей он отправляется на поиски своего врага. Его путь полон невероятных приключений, отчаянных поединков, неожиданных встреч и опасностей.

Конан с достоинством проходит все испытания, но сможет ли он победить в последней и самой опасной битве в его жизни, битве с непобедимым Тулса Думом?


Страна: США
Продолжительность: 02:10:31
Перевод: Дубляж

Файл
Кодек: h.264
Качество: BDRip 1080p
Видео: 1920x816, 5484 Кбит/сек, 23,976 кадра/сек
Звук:
1. DTS 5.1 @ 768 Kbps | DUB (Blu-ray CEE)
2. AC-3 5.1 @ 256 Kbps | MVO (Киномания)
3. AC-3 5.1 @ 256 Kbps | MVO (Карусель)
4. AC-3 5.1 @ 256 Kbps | DVO (П.Гланц и И.Королева)
5. AC-3 5.1 @ 256 Kbps | ENG
Субтитры: Russian


Общее
Формат : Matroska
Версия формата : Version 2
Размер файла : 6,63 Гбайт
Продолжительность : 2 ч. 10 м.
Общий поток : 7276 Кбит/сек
Название фильма : Conan the Barbarian
Дата кодирования : UTC 2012-09-04 11:31:33
Программа кодирования : mkvmerge v5.8.0 ('No Sleep / Pillow') built on Sep 2 2012 15:37:04
Библиотека кодирования : libebml v1.2.3 + libmatroska v1.3.0

Видео
Идентификатор : 1
Формат : AVC
Формат/Информация : Advanced Video Codec
Профиль формата : High@L4.1
Параметр CABAC формата : Да
Параметр ReFrames формата : 5 кадров
Идентификатор кодека : V_MPEG4/ISO/AVC
Продолжительность : 2 ч. 10 м.
Битрейт : 5484 Кбит/сек
Ширина : 1920 пикселей
Высота : 816 пикселей
Соотношение сторон : 2,35:1
Режим частоты кадров : Постоянный
Частота кадров : 23,976 кадра/сек
Цветовое пространство : YUV
Субдискретизация насыщенности : 4:2:0
Битовая глубина : 8 бит
Тип развёртки : Прогрессивная
Бит/(Пиксели*Кадры) : 0.146
Размер потока : 4,88 Гбайт (74%)
Заголовок : x264 core 125 r2208 d9d2288 @ 5484 Kbps | sum
Библиотека кодирования : x264 core 125 r2208 d9d2288
Настройки программы : cabac=1 / ref=5 / deblock=1:-3:-2 / analyse=0x3:0x133 / me=umh / subme=10 / psy=1 / psy_rd=1.05:0.05 / mixed_ref=1 / me_range=96 / chroma_me=1 / trellis=2 / 8x8dct=1 / cqm=0 / deadzone=21,11 / fast_pskip=0 / chroma_qp_offset=0 / threads=2 / lookahead_threads=1 / sliced_threads=0 / nr=0 / decimate=1 / interlaced=0 / bluray_compat=0 / constrained_intra=0 / bframes=7 / b_pyramid=2 / b_adapt=2 / b_bias=0 / direct=3 / weightb=1 / open_gop=0 / weightp=2 / keyint=240 / keyint_min=24 / scenecut=40 / intra_refresh=0 / rc_lookahead=120 / rc=2pass / mbtree=1 / bitrate=5484 / ratetol=1.0 / qcomp=0.70 / qpmin=0 / qpmax=69 / qpstep=4 / cplxblur=20.0 / qblur=0.5 / vbv_maxrate=24000 / vbv_bufsize=14475 / nal_hrd=none / ip_ratio=1.40 / aq=2:1.00 / zones=182250,187750,b=0.5
Default : Да
Forced : Нет

Аудио #1
Идентификатор : 2
Формат : DTS
Формат/Информация : Digital Theater Systems
Идентификатор кодека : A_DTS
Продолжительность : 2 ч. 10 м.
Вид битрейта : Постоянный
Битрейт : 755 Кбит/сек
Каналы : 6 каналов
Расположение каналов : Front: L C R, Side: L R, LFE
Частота : 48,0 КГц
Битовая глубина : 24 бит
Метод сжатия : С потерями
Размер потока : 704 Мбайт (10%)
Заголовок : DTS 5.1 @ 768 Kbps | DUB (Blu-ray CEE)
Язык : Russian
Default : Да
Forced : Нет

Аудио #2
Идентификатор : 3
Формат : AC-3
Формат/Информация : Audio Coding 3
Расширение режима : CM (complete main)
Параметр Endianness формата : Big
Режим смешивания : Header stripping
Идентификатор кодека : A_AC3
Продолжительность : 2 ч. 10 м.
Вид битрейта : Постоянный
Битрейт : 256 Кбит/сек
Каналы : 6 каналов
Расположение каналов : Front: L C R, Side: L R, LFE
Частота : 48,0 КГц
Битовая глубина : 16 бит
Метод сжатия : С потерями
Размер потока : 239 Мбайт (4%)
Заголовок : AC-3 5.1 @ 256 Kbps | MVO (Kinomanija)
Язык : Russian
Default : Нет
Forced : Нет

Аудио #3
Идентификатор : 4
Формат : AC-3
Формат/Информация : Audio Coding 3
Расширение режима : CM (complete main)
Параметр Endianness формата : Big
Режим смешивания : Header stripping
Идентификатор кодека : A_AC3
Продолжительность : 2 ч. 10 м.
Вид битрейта : Постоянный
Битрейт : 256 Кбит/сек
Каналы : 6 каналов
Расположение каналов : Front: L C R, Side: L R, LFE
Частота : 48,0 КГц
Битовая глубина : 16 бит
Метод сжатия : С потерями
Размер потока : 239 Мбайт (4%)
Заголовок : AC-3 5.1 @ 256 Kbps | MVO (Karusel')
Язык : Russian
Default : Нет
Forced : Нет

Аудио #4
Идентификатор : 5
Формат : AC-3
Формат/Информация : Audio Coding 3
Расширение режима : CM (complete main)
Параметр Endianness формата : Big
Режим смешивания : Header stripping
Идентификатор кодека : A_AC3
Продолжительность : 2 ч. 10 м.
Вид битрейта : Постоянный
Битрейт : 256 Кбит/сек
Каналы : 6 каналов
Расположение каналов : Front: L C R, Side: L R, LFE
Частота : 48,0 КГц
Битовая глубина : 16 бит
Метод сжатия : С потерями
Размер потока : 239 Мбайт (4%)
Заголовок : AC-3 5.1 @ 256 Kbps | DVO (P.Glanc i I.Koroleva)
Язык : Russian
Default : Нет
Forced : Нет

Аудио #5
Идентификатор : 6
Формат : AC-3
Формат/Информация : Audio Coding 3
Расширение режима : CM (complete main)
Параметр Endianness формата : Big
Режим смешивания : Header stripping
Идентификатор кодека : A_AC3
Продолжительность : 2 ч. 10 м.
Вид битрейта : Постоянный
Битрейт : 256 Кбит/сек
Каналы : 6 каналов
Расположение каналов : Front: L C R, Side: L R, LFE
Частота : 48,0 КГц
Битовая глубина : 16 бит
Метод сжатия : С потерями
Размер потока : 239 Мбайт (4%)
Заголовок : AC-3 5.1 @ 256 Kbps | ENG
Язык : English
Default : Нет
Forced : Нет

Текст #1
Идентификатор : 7
Формат : UTF-8
Идентификатор кодека : S_TEXT/UTF8
Идентификатор кодека/Информация : UTF-8 Plain Text
Язык : Russian
Default : Нет
Forced : Нет

Текст #2
Идентификатор : 8
Формат : UTF-8
Идентификатор кодека : S_TEXT/UTF8
Идентификатор кодека/Информация : UTF-8 Plain Text
Язык : Russian
Default : Да
Forced : Нет

Меню
00:00:00.000 : en:00:00:00.000
00:05:00.000 : en:00:05:00.000
00:10:00.000 : en:00:10:00.000
00:15:00.000 : en:00:15:00.000
00:20:00.000 : en:00:20:00.000
00:25:00.000 : en:00:25:00.000
00:30:00.000 : en:00:30:00.000
00:35:00.000 : en:00:35:00.000
00:40:00.000 : en:00:40:00.000
00:45:00.000 : en:00:45:00.000
00:50:00.000 : en:00:50:00.000
00:55:00.000 : en:00:55:00.000
01:00:00.000 : en:01:00:00.000
01:05:00.000 : en:01:05:00.000
01:10:00.000 : en:01:10:00.000
01:15:00.000 : en:01:15:00.000
01:20:00.000 : en:01:20:00.000
01:25:00.000 : en:01:25:00.000
01:30:00.000 : en:01:30:00.000
01:35:00.000 : en:01:35:00.000
01:40:00.000 : en:01:40:00.000
01:45:00.000 : en:01:45:00.000
01:50:00.000 : en:01:50:00.000
01:55:00.000 : en:01:55:00.000
02:00:00.000 : en:02:00:00.000
02:05:00.000 : en:02:05:00.000
02:10:00.000 : en:02:10:00.000




   Похожие торренты   Торрент   Размер 
В этой теме нет новых непрочитанных сообщений. Конан-варвар / Conan The Barbarian (1982) BDRip 1080p от NoLimits-Team

19 | 16

7.94 ГБ

В этой теме нет новых непрочитанных сообщений. Конан-варвар / Conan the Barbarian (1982) BDRip-AVC от Sem-te | P2, А

8 | 0

2.89 ГБ

В этой теме нет новых непрочитанных сообщений. Конан-варвар / Conan the Barbarian (1982) BDRip от HQCLUB

127 | 9

2.18 ГБ

В этой теме нет новых непрочитанных сообщений. Конан Варвар / Conan The Barbarian (1982) BDRip-AVC от R.G. 25 Кадр

1 | 2

2.18 ГБ

В этой теме нет новых непрочитанных сообщений. Конан-варвар / Conan the Barbarian (1982) BDRip-AVC 480p от RP4 CHG

8 | 3

1.09 ГБ

В этой теме нет новых непрочитанных сообщений. Конан-варвар / Conan the Barbarian (1982) BDRip-AVC от HELLYWOOD | P

383 | 11

2.91 ГБ

В этой теме нет новых непрочитанных сообщений. Конан-варвар / Conan the Barbarian (1982) BDRip 720p от FREEISLAND

3 | 6

4.28 ГБ




Вы не можете начинать темы
Вы не можете отвечать на сообщения
Вы не можете редактировать свои сообщения
Вы не можете удалять свои сообщения
Вы не можете добавлять вложения

Перейти:  
Для Мосгорсуда, Роскомнадзора и рекламодателей: mosgorsud-torrent[собачка]yandex.ru
 Вход
ppkBB3cker v.2 © 2008-2014 @ PPK
[ Time : 0.035s | 14 Queries | GZIP : Off ]
CGP output time : 0.034s | 7 Queries | GZIP : Off

Торрент трекер RUTOR.IN, Не можете зайти на rutor.org? Какой новый адрес рутор? Какое зеркало рутор? Не работает rutor.org и зеркала? Тогда наш торрент специально для вас. Rutor.in неофициальное зеркало rutor. В случае если у Вас заблокирован rutor или вдруг Вы не можете на него зайти, то Вы без труда сможете скачать бесплатно и без рекламы последние новинки кино, игр, сериалов и прочего у нас, на Rutor.in. Не нужно использовать прокси, чтобы зайти на рутор, достаточно воспользоваться нашим ресурсом. Все новые фильмы, игры, сериалы, книги и музыка за 2013 и 2014 годы через торрент бесплатно. Скачивайте фильмы в хорошем качестве, игры для пк, xbox, playstation без регистрации. У нас вы найдете новые Зарубежные сериалы и Русские сериалы 2013, 2014, 2015 годов. Оставайтесь с нами, качайте любимые фильмы, игры, сериалы, книги и музыку.