img image001 image001 image001 image001 image001 image001 image001 image001 image001 image001 image001 image001 image001 image001 image001 image001

Planets Sun Sun Sun
Статистика раздачи
Автор: Nickolas3434 | Размер: 7.75 ГБ | Добавлен: 17 ноя 2017
Раздают: 7    Качают: 1
Скачать торрент
Скачать торрент
Описание торрента

СообщениеДобавлено: 17 ноя 2017 

Информация о фильме
Название: Наемные убийцы
Оригинальное название: Assassins
Год выхода: 1995
Жанр: Боевик, триллер, криминал
Режиссер: Ричард Доннер / Richard Donner
В ролях: Сильвестр Сталлоне, Антонио Бандерас, Джулианна Мур, Анатолий Давыдов, Мьюз Уотсон, Стив Кэхэн, Келли Роуэн, Рид Даймонд, Кай Вулфф
О фильме:
Роберт Рэт — лучший киллер, номер один в своём деле. Но кодекс чести и чувство долга, что некогда составляли часть его смертельной карьеры, исчезли. Мир, возникший после холодной войны, переполнен отморозками. Рэт хочет «завязать». Ему поручили убрать хакершу Электру , ворующую из компьютерных сетей секретную информацию и продающую ее тем, кто больше заплатит. Задание перехватывает молодой и амбициозный киллер Мигель Бэйн, мечтающий занять место стареющего Роберта, чтобы самому стать номером первым. Рэт не убивает жертву, а объединяет их усилия по получению денег. Мигель Бэйн получает задание убить Рэта. Но как оказывается, у старшего киллера есть ещё один враг…

Страна: США, Франция
Студия: Warner Bros. Pictures, Le Studio Canal+, Silver Pictures
Продолжительность: 02:12:55
Перевод: Профессиональный (дублированный)
Файл
Кодек: H.264
Качество: BDRip 720p [BDRemux 1080p]
Видео: AVC, 1280x720 (16:9), 23.976 fps, 5 416 Kbps (0.245 bit/pixel)
Аудио #1: AC-3, 48.0 KHz, 6 ch, 448 Kbps, CBR (Russian) - дублированный (Лицензия)
Аудио #2: AC-3, 48.0 KHz, 2 ch, 192 Kbps, CBR (Russian) - двухголосый (НТВ+)
Аудио #3: AC-3, 48.0 KHz, 2 ch, 192 Kbps, CBR (Russian) - дублированный (Варус Видео)
Аудио #4: AC-3, 48.0 KHz, 6 ch, 448 Kbps, CBR (Russian) - авторский А.Гаврилов
Аудио #5: AC-3, 48.0 KHz, 2 ch, 192 Kbps, CBR (Russian) - авторский С.Визгунов
Аудио #6: AC-3, 48.0 KHz, 6 ch, 448 Kbps, CBR (Russian) - авторский Ю.Живов
Аудио #7: AC-3, 48.0 KHz, 6 ch, 384 Kbps, CBR (Russian) - авторский Диктор CDV
Аудио #8: AC-3, 48.0 KHz, 2 ch, 192 Kbps, CBR (Russian) - авторский И.Кашкин
Аудио #9: AC-3, 48.0 KHz, 6 ch, 448 Kbps, CBR (English) - оригинальная звуковая дорожка
Субтитры: Russian, English
Скриншоты:

Полное имя : D:ФИЛЬМЫНаёмные убийцы.1995 (С.Сталлоне,А.Бандерас).mkv
Формат : Matroska
Версия формата : Version 2
Размер файла : 7,75 Гбайт
Продолжительность : 2 ч. 12 м.
Общий поток : 8353 Кбит/сек
Название фильма : Наемные убийцы / Убийцы / Assassins (1995) BDRip-AVC
Дата кодирования : UTC 2017-11-06 15:23:35
Программа кодирования : mkvmerge v5.3.0 ('I could have danced') built on Feb 9 2012 10:38:07
Библиотека кодирования : libebml v1.2.3 + libmatroska v1.3.0
Обложка : Yes
Attachments : cover.jpg
Видео
Идентификатор : 1
Формат : AVC
Формат/Информация : Advanced Video Codec
Профиль формата : High@L4.1
Параметр CABAC формата : Да
Параметр ReFrames формата : 9 кадров
Идентификатор кодека : V_MPEG4/ISO/AVC
Продолжительность : 2 ч. 12 м.
Битрейт : 5416 Кбит/сек
Ширина : 1280 пикселей
Высота : 720 пикселей
Соотношение сторон : 16:9
Режим частоты кадров : Постоянный
Частота кадров : 23,976 (24000/1001) кадра/сек
Цветовое пространство : YUV
Субдискретизация насыщенности : 4:2:0
Битовая глубина : 8 бит
Тип развёртки : Прогрессивная
Бит/(Пиксели*Кадры) : 0.245
Размер потока : 4,87 Гбайт (63%)
Библиотека кодирования : x264 core 146 r2538 121396c
Настройки программы : cabac=1 / ref=9 / deblock=1:-3:-3 / analyse=0x3:0x133 / me=umh / subme=11 / psy=1 / psy_rd=1.05:0.10 / mixed_ref=1 / me_range=32 / chroma_me=1 / trellis=2 / 8x8dct=1 / cqm=0 / deadzone=21,11 / fast_pskip=0 / chroma_qp_offset=-3 / threads=12 / lookahead_threads=3 / sliced_threads=0 / nr=0 / decimate=0 / interlaced=0 / bluray_compat=0 / constrained_intra=0 / bframes=10 / b_pyramid=2 / b_adapt=2 / b_bias=0 / direct=3 / weightb=1 / open_gop=0 / weightp=2 / keyint=240 / keyint_min=23 / scenecut=40 / intra_refresh=0 / rc=2pass / mbtree=0 / bitrate=5416 / ratetol=1.0 / qcomp=0.60 / qpmin=0 / qpmax=69 / qpstep=4 / cplxblur=20.0 / qblur=0.5 / ip_ratio=1.40 / pb_ratio=1.30 / aq=3:0.90
Язык : English
Default : Да
Forced : Нет
Аудио #1
Идентификатор : 2
Формат : AC-3
Формат/Информация : Audio Coding 3
Расширение режима : CM (complete main)
Параметр Endianness формата : Big
Идентификатор кодека : A_AC3
Продолжительность : 2 ч. 12 м.
Вид битрейта : Постоянный
Битрейт : 448 Кбит/сек
Каналы : 6 каналов
Расположение каналов : Front: L C R, Side: L R, LFE
Частота : 48,0 КГц
Частота кадров : 31,250 кадров/сек (1536 spf)
Битовая глубина : 16 бит
Метод сжатия : С потерями
Размер потока : 426 Мбайт (5%)
Заголовок : Дублированный (Лицензия)
Язык : Russian
Default : Да
Forced : Да
Аудио #2
Идентификатор : 3
Формат : AC-3
Формат/Информация : Audio Coding 3
Расширение режима : CM (complete main)
Параметр Endianness формата : Big
Идентификатор кодека : A_AC3
Продолжительность : 2 ч. 12 м.
Вид битрейта : Постоянный
Битрейт : 192 Кбит/сек
Каналы : 2 канала
Расположение каналов : Front: L R
Частота : 48,0 КГц
Частота кадров : 31,250 кадров/сек (1536 spf)
Битовая глубина : 16 бит
Метод сжатия : С потерями
Размер потока : 182 Мбайт (2%)
Заголовок : Двухголосый (НТВ)
Язык : Russian
Default : Нет
Forced : Нет
Аудио #3
Идентификатор : 4
Формат : AC-3
Формат/Информация : Audio Coding 3
Расширение режима : CM (complete main)
Параметр Endianness формата : Big
Идентификатор кодека : A_AC3
Продолжительность : 2 ч. 12 м.
Вид битрейта : Постоянный
Битрейт : 192 Кбит/сек
Каналы : 2 канала
Расположение каналов : Front: L R
Частота : 48,0 КГц
Частота кадров : 31,250 кадров/сек (1536 spf)
Битовая глубина : 16 бит
Метод сжатия : С потерями
Размер потока : 182 Мбайт (2%)
Заголовок : Дублированный (Varus-Video)
Язык : Russian
Default : Нет
Forced : Нет
Аудио #4
Идентификатор : 5
Формат : AC-3
Формат/Информация : Audio Coding 3
Расширение режима : CM (complete main)
Параметр Endianness формата : Big
Идентификатор кодека : A_AC3
Продолжительность : 2 ч. 12 м.
Вид битрейта : Постоянный
Битрейт : 448 Кбит/сек
Каналы : 6 каналов
Расположение каналов : Front: L C R, Side: L R, LFE
Частота : 48,0 КГц
Частота кадров : 31,250 кадров/сек (1536 spf)
Битовая глубина : 16 бит
Метод сжатия : С потерями
Размер потока : 426 Мбайт (5%)
Заголовок : Авторский А.Гаврилов
Язык : Russian
Default : Нет
Forced : Нет
Аудио #5
Идентификатор : 6
Формат : AC-3
Формат/Информация : Audio Coding 3
Расширение режима : CM (complete main)
Параметр Endianness формата : Big
Идентификатор кодека : A_AC3
Продолжительность : 2 ч. 12 м.
Вид битрейта : Постоянный
Битрейт : 192 Кбит/сек
Каналы : 2 канала
Расположение каналов : Front: L R
Частота : 48,0 КГц
Частота кадров : 31,250 кадров/сек (1536 spf)
Битовая глубина : 16 бит
Метод сжатия : С потерями
Размер потока : 182 Мбайт (2%)
Заголовок : Авторский С.Визгунов
Язык : Russian
Default : Нет
Forced : Нет
Аудио #6
Идентификатор : 7
Формат : AC-3
Формат/Информация : Audio Coding 3
Расширение режима : CM (complete main)
Параметр Endianness формата : Big
Идентификатор кодека : A_AC3
Продолжительность : 2 ч. 12 м.
Вид битрейта : Постоянный
Битрейт : 448 Кбит/сек
Каналы : 6 каналов
Расположение каналов : Front: L C R, Side: L R, LFE
Частота : 48,0 КГц
Частота кадров : 31,250 кадров/сек (1536 spf)
Битовая глубина : 16 бит
Метод сжатия : С потерями
Размер потока : 426 Мбайт (5%)
Заголовок : Авторский Ю.Живов
Язык : Russian
Default : Нет
Forced : Нет
Аудио #7
Идентификатор : 8
Формат : AC-3
Формат/Информация : Audio Coding 3
Расширение режима : CM (complete main)
Параметр Endianness формата : Big
Идентификатор кодека : A_AC3
Продолжительность : 2 ч. 12 м.
Вид битрейта : Постоянный
Битрейт : 384 Кбит/сек
Каналы : 6 каналов
Расположение каналов : Front: L C R, Side: L R, LFE
Частота : 48,0 КГц
Частота кадров : 31,250 кадров/сек (1536 spf)
Битовая глубина : 16 бит
Метод сжатия : С потерями
Размер потока : 365 Мбайт (5%)
Заголовок : Авторский Диктор CDV
Язык : Russian
Default : Нет
Forced : Нет
Аудио #8
Идентификатор : 9
Формат : AC-3
Формат/Информация : Audio Coding 3
Расширение режима : CM (complete main)
Параметр Endianness формата : Big
Идентификатор кодека : A_AC3
Продолжительность : 2 ч. 12 м.
Вид битрейта : Постоянный
Битрейт : 192 Кбит/сек
Каналы : 2 канала
Расположение каналов : Front: L R
Частота : 48,0 КГц
Частота кадров : 31,250 кадров/сек (1536 spf)
Битовая глубина : 16 бит
Метод сжатия : С потерями
Размер потока : 182 Мбайт (2%)
Заголовок : Авторский И.Кашкин
Язык : Russian
Default : Нет
Forced : Нет
Аудио #9
Идентификатор : 10
Формат : AC-3
Формат/Информация : Audio Coding 3
Расширение режима : CM (complete main)
Параметр Endianness формата : Big
Идентификатор кодека : A_AC3
Продолжительность : 2 ч. 12 м.
Вид битрейта : Постоянный
Битрейт : 448 Кбит/сек
Каналы : 6 каналов
Расположение каналов : Front: L C R, Side: L R, LFE
Частота : 48,0 КГц
Частота кадров : 31,250 кадров/сек (1536 spf)
Битовая глубина : 16 бит
Метод сжатия : С потерями
Размер потока : 426 Мбайт (5%)
Язык : English
Default : Нет
Forced : Нет
Текст #1
Идентификатор : 11
Формат : UTF-8
Идентификатор кодека : S_TEXT/UTF8
Идентификатор кодека/Информация : UTF-8 Plain Text
Язык : Russian
Default : Нет
Forced : Нет
Текст #2
Идентификатор : 12
Формат : UTF-8
Идентификатор кодека : S_TEXT/UTF8
Идентификатор кодека/Информация : UTF-8 Plain Text
Язык : English
Default : Нет
Forced : Нет
Меню
00:00:00.000 : en:Marks Past and Present
00:05:35.293 : en:Next Mark
00:10:00.934 : en:Another Assassin
00:14:44.467 : en:Officers Down, Suspect Gone
00:17:39.100 : en:New Wheels
00:19:01.640 : en:Chitchat with a Passenger
00:24:35.015 : en:Reckless Driving
00:30:03.719 : en:Bishop Takes Rook Pawn
00:31:34.184 : en:New Mark
00:34:57.804 : en:A Watchful Eye
00:36:47.414 : en:Furry Mischief
00:37:56.774 : en:The Players Gather
00:44:13.442 : en:Miguel Strikes
00:48:12.473 : en:The Unfinished Mark
00:55:02.216 : en:Death at Close Quarters
00:59:54.925 : en:Birthday Blast
01:03:05.699 : en:Two Nobody's Spending Time Together
01:06:50.506 : en:Contact Reassigned
01:08:38.448 : en:A Way to Make a Million
01:12:37.270 : en:Payoff for Keeps
01:17:07.331 : en:New Arrangements
01:20:52.556 : en:The Desired Mark
01:22:00.499 : en:Memory Hotel
01:27:24.281 : en:The Day of the Dead
01:31:34.989 : en:Cemetery Cat-and-Mouse
01:35:18.004 : en:The Waiting Game
01:41:39.802 : en:Warm and Happy Stories
01:42:59.840 : en:Out of Patience
01:46:12.116 : en:The Lady Takes a Chance
01:47:33.530 : en:Final Chitchat
01:52:24.196 : en:Pulling the Trigger
01:55:42.602 : en:Bullets Among the Ruins
01:57:09.773 : en:Falling Down
01:59:17.984 : en:The Contractor
02:01:53.640 : en:The Correct Mark
02:03:05.712 : en:"No Goodbyes"
02:06:34.879 : en:End Credits

Релиз: Группа в ВК &



   Похожие торренты   Торрент   Размер 
В этой теме нет новых непрочитанных сообщений. Наемные убийцы / Assassins (1995) BDRip-AVC от k.e.n & MegaPeer | D

19 | 2

1.46 ГБ

В этой теме нет новых непрочитанных сообщений. Наемные убийцы / Assassins (1995) BDRip 720p от leonardo 59

33 | 6

5.81 ГБ

В этой теме нет новых непрочитанных сообщений. Наемные убийцы / Assassins (1995) BDRip-AVC | D

15 | 0

745.85 МБ

В этой теме нет новых непрочитанных сообщений. Наемные убийцы / Assassins (1995) BDRip-AVC | D, Р2, А

6 | 7

6.33 ГБ

В этой теме нет новых непрочитанных сообщений. Наемные убийцы / Assassins (1995) BDRip-AVC от R.G.RealMT

33 | 8

2.17 ГБ

В этой теме нет новых непрочитанных сообщений. Наемные убийцы / Assassins (1995) BDRip от HQ-ViDEO | D

347 | 14

2.18 ГБ

В этой теме нет новых непрочитанных сообщений. Наемные убийцы / Assassins (1995) BDRip-AVC от 0ptimus | D, P2, A

26 | 136

5.09 ГБ




Вы не можете начинать темы
Вы не можете отвечать на сообщения
Вы не можете редактировать свои сообщения
Вы не можете удалять свои сообщения
Вы не можете добавлять вложения

Перейти:  
 Вход
ppkBB3cker v.2 © 2008-2014 @ PPK
[ Time : 0.035s | 19 Queries | GZIP : Off ]

cron