img image001 image001 image001 image001 image001 image001 image001 image001 image001 image001 image001 image001 image001 image001 image001

Planets Sun Sun Sun
Статистика раздачи
Автор: Nickolas3434 | Размер: 744.4 МБ | Добавлен: 17 ноя 2017
Раздают: 64    Качают: 0
Скачать торрент
Скачать торрент
Описание торрента

СообщениеДобавлено: 17 ноя 2017 

Информация о фильме
Название: Попали! (Конура, Будка)
Оригинальное название: Doghouse (Zombie Harlem)
Год выхода: 2009
Жанр: Ужасы, комедия
Режиссер: Джэйк Уэст
В ролях: Дэнни Дайер, Стивен Грэхэм, Ноэль Кларк, Терри Стоун, Кристина Коул, Ли Инглби, Кейт-Ли Кастл, Эмил Марва, Нил Мэскелл, Аделе Силва
О фильме :
Сюжет фильма повествует о нескольких людях, которые, путешествуя во время каникул, натыкаются на деревню, все жители которой — женщины, выжившие после того, как над их домами распылили экспериментальные смертоносные токсины. Все они после этого мутировали в психопаток-каннибалок, одержимых ненавистью к мужчинам. Путешественникам остается только посочувствовать, так как скорее всего, после встречи с подобными существами живые будут завидовать мертвым…

Страна: Великобритания / Carnaby Film Productions
Продолжительность: 01:28:51
Перевод: Профессиональный (многоголосый, закадровый) - R5 |Ненормативная лексика|
Файл
Формат: MKV
Качество: BDRip-AVC (Blu-Ray Remux 1080p)
Видео: MPEG-4 AVC, 768x324, ~ 1096 Кбит/с
Аудио: AAC-LC, 2 ch, ~ 76 Кбит/с
Субтитры: Русские (ненормативная лексика), английские
Общее
Уникальный идентификатор : 246884853366079828638437032455576753760 (0xB9BC4B0E966A5440AF449042C5B01660)
Полное имя : D:MOVIESDoghouse.2009.ExKinoRay.mkv
Формат : Matroska
Версия формата : Version 4 / Version 2
Размер файла : 744 Мбайт
Продолжительность : 1 ч. 28 м.
Общий поток : 1170 Кбит/сек
Дата кодирования : UTC 2017-11-16 19:31:09
Программа кодирования : mkvmerge v15.0.0 ('Duel with the Devil') 64-bit
Библиотека кодирования : libebml v1.3.5 + libmatroska v1.4.5
Видео
Идентификатор : 1
Формат : AVC
Формат/Информация : Advanced Video Codec
Профиль формата : High@L4.1
Параметр CABAC формата : Да
Параметр RefFrames формата : 10 кадров
Идентификатор кодека : V_MPEG4/ISO/AVC
Продолжительность : 1 ч. 28 м.
Битрейт : 1096 Кбит/сек
Ширина : 768 пикселей
Высота : 324 пикселя
Соотношение сторон : 2,40:1
Режим частоты кадров : Постоянный
Частота кадров : 23,976 (24000/1001) кадра/сек
Цветовое пространство : YUV
Субдискретизация насыщенности : 4:2:0
Битовая глубина : 8 бит
Тип развёртки : Прогрессивная
Бит/(Пиксели*Кадры) : 0.184
Размер потока : 695 Мбайт (93%)
Библиотека кодирования : x264 core 152 r2851 ba24899
Настройки программы : cabac=1 / ref=10 / deblock=1:-2:-2 / analyse=0x3:0x133 / me=umh / subme=11 / psy=1 / psy_rd=1.00:0.05 / mixed_ref=1 / me_range=32 / chroma_me=1 / trellis=2 / 8x8dct=1 / cqm=0 / deadzone=21,11 / fast_pskip=0 / chroma_qp_offset=-3 / threads=6 / lookahead_threads=1 / sliced_threads=0 / nr=0 / decimate=0 / interlaced=0 / bluray_compat=0 / constrained_intra=0 / bframes=10 / b_pyramid=2 / b_adapt=2 / b_bias=0 / direct=3 / weightb=1 / open_gop=0 / weightp=2 / keyint=240 / keyint_min=23 / scenecut=40 / intra_refresh=0 / rc_lookahead=40 / rc=2pass / mbtree=0 / bitrate=1096 / ratetol=1.0 / qcomp=0.60 / qpmin=0 / qpmax=69 / qpstep=4 / cplxblur=20.0 / qblur=0.5 / vbv_maxrate=50000 / vbv_bufsize=62500 / nal_hrd=none / filler=0 / ip_ratio=1.40 / pb_ratio=1.30 / aq=1:1.00
Default : Да
Forced : Нет
Аудио
Идентификатор : 2
Формат : AAC
Формат/Информация : Advanced Audio Codec
Профиль формата : LC
Идентификатор кодека : A_AAC
Продолжительность : 1 ч. 28 м.
Битрейт : 76,0 Кбит/сек
Каналы : 2 канала
Расположение каналов : Front: L R
Частота : 48,0 КГц
Частота кадров : 46,875 кадров/сек (1024 SPF)
Метод сжатия : С потерями
Задержка видео : 9 мс.
Размер потока : 48,4 Мбайт (6%)
Default : Да
Forced : Нет
Текст #1
Идентификатор : 3
Формат : UTF-8
Идентификатор кодека : S_TEXT/UTF8
Идентификатор кодека/Информация : UTF-8 Plain Text
Продолжительность : 1 ч. 24 м.
Битрейт : 81 бит/сек
ElementCount : 860
Размер потока : 50,1 Кбайт (0%)
Заголовок : Rus
Default : Нет
Forced : Нет
Текст #2
Идентификатор : 4
Формат : UTF-8
Идентификатор кодека : S_TEXT/UTF8
Идентификатор кодека/Информация : UTF-8 Plain Text
Продолжительность : 1 ч. 24 м.
Битрейт : 49 бит/сек
ElementCount : 862
Размер потока : 30,4 Кбайт (0%)
Заголовок : Eng
Default : Нет
Forced : Нет
Меню
00:00:00.000 : en:Chapter 01
00:08:17.788 : en:Chapter 02
00:17:13.449 : en:Chapter 03
00:22:49.201 : en:Chapter 04
00:31:20.962 : en:Chapter 05
00:37:54.271 : en:Chapter 06
00:47:29.096 : en:Chapter 07
00:51:55.821 : en:Chapter 08
00:58:13.156 : en:Chapter 09
01:05:03.357 : en:Chapter 10
01:13:08.550 : en:Chapter 11
01:25:20.323 : en:Chapter 12



Релиз от:



   Похожие торренты   Торрент   Размер 
В этой теме нет новых непрочитанных сообщений. Попали! / Конура / Doghouse (2009) BDRip 1080p

4 | 4

7.11 ГБ

В этой теме нет новых непрочитанных сообщений. Попали! / Конура / Doghouse (2009) BDRip [720p] от HQ-ViDEO

19 | 10

4.65 ГБ

В этой теме нет новых непрочитанных сообщений. Попали! / Конура / Будка / Doghouse (2009) BDRip от HQ-ViDEO

34 | 10

2.17 ГБ

В этой теме нет новых непрочитанных сообщений. Конура / Будка / Попали! / Doghouse (2009) BDRip-AVC | iPad

48 | 4

1.12 ГБ

В этой теме нет новых непрочитанных сообщений. Попали / Будка / Конура / Doghouse (2009) BDRip 720р от HDReactor

0 | 2

3.65 ГБ

В этой теме нет новых непрочитанных сообщений. Конура / Будка / Попали! / Псарня / Doghouse (2009) BDRip от HQCLUB | Лицензия

141 | 18

1.46 ГБ

В этой теме нет новых непрочитанных сообщений. Конура / Будка / Попали! / Doghouse / Zombie Harlem (2009) BDRip 720p от vvmon

46 | 6

3.47 ГБ




Вы не можете начинать темы
Вы не можете отвечать на сообщения
Вы не можете редактировать свои сообщения
Вы не можете удалять свои сообщения
Вы не можете добавлять вложения

Перейти:  
Для Мосгорсуда, Роскомнадзора и рекламодателей: mosgorsud-torrent[собачка]yandex.ru
 Вход
ppkBB3cker v.2 © 2008-2014 @ PPK
[ Time : 0.044s | 18 Queries | GZIP : Off ]

cron