img image001 image001 image001 image001 image001 image001 image001 image001 image001 image001 image001 image001 image001 image001 image001

Planets Sun Sun Sun
Статистика раздачи
Автор: Nickolas3434 | Размер: 2.32 ГБ | Добавлен: 17 ноя 2017
Раздают: 97    Качают: 5
Скачать торрент
Скачать торрент
Описание торрента

СообщениеДобавлено: 17 ноя 2017 

Его собачье дело / Once Upon a Time in Venice
«Ну очень крепкие орешки»


Год выпуска: 2017
Страна: США
Производство: Voltage Pictures
Жанр: Боевик, триллер, комедия
Режиссёр: Марк Каллен, Робб Каллен
В ролях: Элизабет Рём, Джейсон Момоа, Брюс Уиллис, Фамке Янссен, Ана Флавия Гавлак, Джон Гудмен, Томас Миддлдитч, Адам Голдберг, Кэл Пенн, Стефани Сигман
Перевод: Дублированный | Лицензия
Субтитры: Английские
Реклама: Отсутствует
Описание: Стивен Форд (Брюс Уиллис) – частный детектив из Лос-Анджелеса, профессиональная и личная жизни которого сталкиваются после того, как пресловутая банда уличных гангстеров похищает его любимого пса Бадди. Пытаясь отыскать бесследно исчезнувшую собаку, герой постепенно впутывается в череду странных обстоятельств – лидер группировки прибегает к шантажу и вынуждает Стива работать на себя, взамен обещая вернуть питомца в целости и сохранности. Одновременно с этим на хвост детективу сели два грозных брата-самоанца, которым Форд по-крупному задолжал. Впрочем, Стива это не останавливает, ведь он действительно готов пойти на всё, чтобы воссоединиться со своей любимой собакой.

Качество: BDRip-AVC
Продолжительность: 01:33:53
Формат: MKV
Видео кодек: MPEG-4 AVC
Аудио кодек: AC3
Видео: 1024x426 (2.40:1), 24.000 fps, x264 ~2266 kbps avg, 0.216 bit/pixel
Аудио #1: 48 kHz, AC3 Dolby Digital, 3/2 (L,C,R,l,r) + LFE ch, ~448.00 kbps avg | RUS (Лицензия)
Аудио #2: 48 kHz, AC3 Dolby Digital, 3/2 (L,C,R,l,r) + LFE ch, ~384.00 kbps avg | UKR (iTunes)
Аудио #3: 48 kHz, AC3 Dolby Digital, 3/2 (L,C,R,l,r) + LFE ch, ~448.00 kbps avg | ENG
Дата премьеры (мир): 8 июня 2017
Дата премьеры (РФ): 8 июня 2017, «Вольга»

Релиз от: Rip by:
Общее
Уникальный идентификатор : 205647087985063154045894671541560525048 (0x9AB6303FBE4EEAE38F5753284131C0F8)
Полное имя : E:OlLanDGroupOnce.Upon.a.Time.in.Venice.2017.BDRip(AVC).OlLanDGroup.mkv
Формат : Matroska
Версия формата : Version 2
Размер файла : 2,32 Гбайт
Продолжительность : 1 ч. 34 м.
Общий поток : 3541 Кбит/сек
Название фильма : Once.Upon.a.Time.in.Venice.2017 #TorpedoUK#
Дата кодирования : UTC 2017-11-17 00:49:58
Программа кодирования : mkvmerge v7.8.0 ('River Man') 32bit built on Apr 3 2015 12:11:22
Библиотека кодирования : libebml v1.3.1 + libmatroska v1.4.2
Attachments : poster.jpg
Видео
Идентификатор : 1
Формат : AVC
Формат/Информация : Advanced Video Codec
Профиль формата : High@L4.1
Параметр CABAC формата : Да
Параметр ReFrames формата : 10 кадров
Идентификатор кодека : V_MPEG4/ISO/AVC
Продолжительность : 1 ч. 34 м.
Битрейт : 2266 Кбит/сек
Ширина : 1024 пикселя
Высота : 426 пикселей
Соотношение сторон : 2,40:1
Режим частоты кадров : Постоянный
Частота кадров : 24,000 кадра/сек
Цветовое пространство : YUV
Субдискретизация насыщенности : 4:2:0
Битовая глубина : 8 бит
Тип развёртки : Прогрессивная
Бит/(Пиксели*Кадры) : 0.216
Размер потока : 1,44 Гбайт (62%)
Библиотека кодирования : x264 core 146 r2538 121396c
Настройки программы : cabac=1 / ref=10 / deblock=1:-3:-3 / analyse=0x3:0x133 / me=umh / subme=11 / psy=1 / psy_rd=1.00:0.07 / mixed_ref=1 / me_range=48 / chroma_me=1 / trellis=2 / 8x8dct=1 / cqm=0 / deadzone=21,11 / fast_pskip=0 / chroma_qp_offset=-3 / threads=6 / lookahead_threads=1 / sliced_threads=0 / nr=0 / decimate=0 / interlaced=0 / bluray_compat=0 / constrained_intra=0 / bframes=10 / b_pyramid=2 / b_adapt=2 / b_bias=0 / direct=3 / weightb=1 / open_gop=0 / weightp=2 / keyint=240 / keyint_min=24 / scenecut=40 / intra_refresh=0 / rc_lookahead=40 / rc=2pass / mbtree=0 / bitrate=2266 / ratetol=1.0 / qcomp=0.60 / qpmin=0 / qpmax=69 / qpstep=4 / cplxblur=20.0 / qblur=0.5 / vbv_maxrate=50000 / vbv_bufsize=62500 / nal_hrd=none / filler=0 / ip_ratio=1.40 / pb_ratio=1.30 / aq=1:1.00
Язык : English
Default : Да
Forced : Нет
Аудио #1
Идентификатор : 2
Формат : AC-3
Формат/Информация : Audio Coding 3
Расширение режима : CM (complete main)
Параметр Endianness формата : Big
Идентификатор кодека : A_AC3
Продолжительность : 1 ч. 34 м.
Вид битрейта : Постоянный
Битрейт : 448 Кбит/сек
Каналы : 6 каналов
Расположение каналов : Front: L C R, Side: L R, LFE
Частота : 48,0 КГц
Частота кадров : 31,250 кадров/сек (1536 spf)
Битовая глубина : 16 бит
Метод сжатия : С потерями
Размер потока : 301 Мбайт (13%)
Заголовок : License
Язык : Russian
Default : Да
Forced : Нет
Аудио #2
Идентификатор : 3
Формат : AC-3
Формат/Информация : Audio Coding 3
Расширение режима : CM (complete main)
Параметр Endianness формата : Big
Идентификатор кодека : A_AC3
Продолжительность : 1 ч. 34 м.
Вид битрейта : Постоянный
Битрейт : 384 Кбит/сек
Каналы : 6 каналов
Расположение каналов : Front: L C R, Side: L R, LFE
Частота : 48,0 КГц
Частота кадров : 31,250 кадров/сек (1536 spf)
Битовая глубина : 16 бит
Метод сжатия : С потерями
Размер потока : 258 Мбайт (11%)
Заголовок : MVO (iTunes)
Язык : Ukrainian
Default : Нет
Forced : Нет
Аудио #3
Идентификатор : 4
Формат : AC-3
Формат/Информация : Audio Coding 3
Расширение режима : CM (complete main)
Параметр Endianness формата : Big
Идентификатор кодека : A_AC3
Продолжительность : 1 ч. 34 м.
Вид битрейта : Постоянный
Битрейт : 448 Кбит/сек
Каналы : 6 каналов
Расположение каналов : Front: L C R, Side: L R, LFE
Частота : 48,0 КГц
Частота кадров : 31,250 кадров/сек (1536 spf)
Битовая глубина : 16 бит
Метод сжатия : С потерями
Размер потока : 301 Мбайт (13%)
Заголовок : Original
Язык : English
Default : Нет
Forced : Нет
Текст
Идентификатор : 5
Формат : UTF-8
Идентификатор кодека : S_TEXT/UTF8
Идентификатор кодека/Информация : UTF-8 Plain Text
Язык : English
Default : Нет
Forced : Нет
Меню
00:00:00.000 : en:Chapter 1
00:18:30.833 : en:Chapter 2
00:31:41.875 : en:Chapter 3
00:46:30.333 : en:Chapter 4
01:03:02.500 : en:Chapter 5
01:18:44.791 : en:Chapter 6







   Похожие торренты   Торрент   Размер 
В этой теме нет новых непрочитанных сообщений. Его собачье дело / Once Upon a Time in Venice (2017) BDRip от ExKinoRay | Лицензия

172 | 5

1.46 ГБ

В этой теме нет новых непрочитанных сообщений. Его собачье дело / Once Upon a Time in Venice (2017) BDRip от MegaPeer | RUS Transfer | Лицензия

70 | 2

1.46 ГБ

В этой теме нет новых непрочитанных сообщений. Его собачье дело / Once Upon a Time in Venice (2017) BDRip-AVC от ExKinoRay | RUS Transfer | Лицензия

100 | 5

745.8 МБ

В этой теме нет новых непрочитанных сообщений. Его собачье дело / Once Upon a Time in Venice (2017) BDRip-HEVC 1080p | D, A | Лицензия

40 | 2

6.25 ГБ

В этой теме нет новых непрочитанных сообщений. Его собачье дело / Once Upon a Time in Venice (2017) Blu-ray 1080p | Rus Transfer | Лицензия

12 | 6

17.66 ГБ

В этой теме нет новых непрочитанных сообщений. Его собачье дело / Once Upon a Time in Venice (2017) BDRemux 1080p | RUS Transfer | Лицензия

6 | 1

15.1 ГБ

В этой теме нет новых непрочитанных сообщений. Его собачье дело / Once Upon a Time in Venice (2017) BDRemux 1080p от ExKinoRay | US Transfer | D, A | Лицензия

14 | 4

28.62 ГБ




Вы не можете начинать темы
Вы не можете отвечать на сообщения
Вы не можете редактировать свои сообщения
Вы не можете удалять свои сообщения
Вы не можете добавлять вложения

Перейти:  
Для Мосгорсуда, Роскомнадзора и рекламодателей: mosgorsud-torrent[собачка]yandex.ru
 Вход
ppkBB3cker v.2 © 2008-2014 @ PPK
[ Time : 0.042s | 19 Queries | GZIP : Off ]

cron