img image001 image001 image001 image001 image001 image001 image001 image001 image001 image001 image001 image001 image001 image001 image001

Planets Sun Sun Sun
Статистика раздачи
Автор: Nickolas3434 | Размер: 1.46 ГБ | Добавлен: 17 ноя 2017
Раздают: 14    Качают: 1
Скачать торрент
Скачать торрент
Описание торрента

СообщениеДобавлено: 17 ноя 2017 

Информация о фильме
Название: Злодейка
Оригинальное название: The Wicked Lady
Год выхода: 1983
Жанр: Драма, приключения
Режиссер: Майкл Уиннер / Michael Winner
В ролях: Фэй Данауэй, Алан Бейтс, Джон Гилгуд, Денхолм Эллиот, Прунелла Скейлс, Оливер Тобиас, Глайнис Барбер, Джоан Хиксон, Хелена МакКарти, Молли Морин.
О фильме:
Каролин собирается замуж за сэра Ральфа и приглашает свою сестру Барбару быть свидетельницей на ее свадьбе. Барбара соблазняет Ральфа и сама становится богатой женой. Вскоре ей наскучила домашняя обстановка и она находит новое развлечение - грабежи экипажей в предместных лесах ... Но тем же разбоем занимается Джерри Джексон и они не только будут компаньонами, но и ... близкими друзьями. Однако от общественности свое двуличие Барбаре не утаить ...

Страна: Великобритания
Продолжительность: 01:39:00
Перевод: Профессиональный (многоголосый закадровый) НТВ+ / Авторский (одноголосый закадровый) Л. Володарский
Файл
Кодек: XviD / AC3
Качество: BDRip
Видео: 720х384 (1:85:1), XviD build 67 ~ 1 717 kbps, 23.976 fps, 0.26 bit/pixel
Звук:
48 kHz, AC3 Dolby Digital, 2/0 (L,R), ~192.00 kbps avg (НТВ+)
48 kHz, AC3 Dolby Digital, 2/0 (L,R), ~192.00 kbps avg (Л. Володарский)
Субтитры: нет
http://rutor.org/ / http://rutor.is/
General
Format : AVI
Format/Info : Audio Video Interleave
File size : 1.46 GiB
Duration : 1h 39mn
Overall bit rate : 2 115 Kbps
Writing application : VirtualDubMod 1.5.10.2 (build 2540/release)
Writing library : VirtualDubMod build 2540/release
Video
ID : 0
Format : MPEG-4 Visual
Format profile : Advanced Simple@L5
Format settings, BVOP : 1
Format settings, QPel : No
Format settings, GMC : No warppoints
Format settings, Matrix : Custom
Codec ID : XVID
Codec ID/Hint : XviD
Duration : 1h 39mn
Bit rate : 1 717 Kbps
Width : 720 pixels
Height : 384 pixels
Display aspect ratio : 1.85:1
Frame rate : 23.976 (23976/1000) fps
Color space : YUV
Chroma subsampling : 4:2:0
Bit depth : 8 bits
Scan type : Progressive
Compression mode : Lossy
Bits/(Pixel*Frame) : 0.259
Stream size : 1.19 GiB (81%)
Writing library : XviD 67
Audio #1
ID : 1
Format : AC-3
Format/Info : Audio Coding 3
Mode extension : CM (complete main)
Format settings, Endianness : Big
Codec ID : 2000
Duration : 1h 39mn
Bit rate mode : Constant
Bit rate : 192 Kbps
Channel(s) : 2 channels
Channel positions : Front: L R
Sampling rate : 48.0 KHz
Frame rate : 31.250 fps (1536 spf)
Compression mode : Lossy
Stream size : 136 MiB (9%)
Alignment : Split accross interleaves
Interleave, duration : 42 ms (1.00 video frame)
Interleave, preload duratio : 500 ms
Audio #2
ID : 2
Format : AC-3
Format/Info : Audio Coding 3
Mode extension : CM (complete main)
Format settings, Endianness : Big
Codec ID : 2000
Duration : 1h 39mn
Bit rate mode : Constant
Bit rate : 192 Kbps
Channel(s) : 2 channels
Channel positions : Front: L R
Sampling rate : 48.0 KHz
Frame rate : 31.250 fps (1536 spf)
Compression mode : Lossy
Stream size : 136 MiB (9%)
Alignment : Split accross interleaves
Interleave, duration : 42 ms (1.00 video frame)
Interleave, preload duratio : 500 ms



   Похожие торренты   Торрент   Размер 
В этой теме нет новых непрочитанных сообщений. Злодейка / The Wicked Lady (1983) DVDRip от Киномагия

0 | 5

1.37 ГБ

В этой теме нет новых непрочитанных сообщений. The Wicked Lady - Psychotic Overkill / The Axman Cometh (1968-1972) APE

0 | 2

478.98 МБ

В этой теме нет новых непрочитанных сообщений. Злодейка / The Villainess / Ak-Nyeo (2017) BDRip 720p | AlexFilm

0 | 0

3.25 ГБ

В этой теме нет новых непрочитанных сообщений. Злодейка / Ak-Nyeo / The Villainess (2017) BDRip 1080p | AlexFilm

133 | 9

9.45 ГБ

В этой теме нет новых непрочитанных сообщений. Леди-убийца / The Lady Assassin / Ching Gung Kai Si Luk (1983) DVDRip oт RG Orient Extreme | L1

1021 | 272

747.45 МБ

В этой теме нет новых непрочитанных сообщений. Злодейка / The Villainess (2017) HDRip | L1

728 | 4

1.47 ГБ

В этой теме нет новых непрочитанных сообщений. Chief - Судьба-злодейка (2012) MP3

0 | 3

94.13 МБ




Вы не можете начинать темы
Вы не можете отвечать на сообщения
Вы не можете редактировать свои сообщения
Вы не можете удалять свои сообщения
Вы не можете добавлять вложения

Перейти:  
Для Мосгорсуда, Роскомнадзора и рекламодателей: mosgorsud-torrent[собачка]yandex.ru
 Вход
ppkBB3cker v.2 © 2008-2014 @ PPK
[ Time : 1.921s | 17 Queries | GZIP : Off ]

cron