img image001 image001 image001 image001 image001 image001 image001 image001 image001 image001 image001 image001 image001 image001 image001

Planets Sun Sun Sun
Статистика раздачи
Автор: Nickolas3434 | Размер: 28.62 ГБ | Добавлен: 17 ноя 2017
Раздают: 14    Качают: 4
Скачать торрент
Скачать торрент
Описание торрента

СообщениеДобавлено: 17 ноя 2017 

Информация о фильме
Название: Его собачье дело
Оригинальное название: Once Upon a Time in Venice
Год выхода: 2017
Жанр: Боевик, триллер, комедия
Режиссер: Марк Каллен, Робб Каллен
В ролях: Элизабет Рём, Джейсон Момоа, Брюс Уиллис, Фамке Янссен, Ана Флавия Гавлак, Джон Гудмен, Томас Миддлдитч, Адам Голдберг, Кэл Пенн, Стефани Сигман
О фильме:
Стивен Форд (Брюс Уиллис) – частный детектив из Лос-Анджелеса, профессиональная и личная жизни которого сталкиваются после того, как пресловутая банда уличных гангстеров похищает его любимого пса Бадди. Пытаясь отыскать бесследно исчезнувшую собаку, герой постепенно впутывается в череду странных обстоятельств – лидер группировки прибегает к шантажу и вынуждает Стива работать на себя, взамен обещая вернуть питомца в целости и сохранности. Одновременно с этим на хвост детективу сели два грозных брата-самоанца, которым Форд по-крупному задолжал. Впрочем, Стива это не останавливает, ведь он действительно готов пойти на всё, чтобы воссоединиться со своей любимой собакой

Страна: США
Студия: Voltage Pictures
Продолжительность: 01:34:19
Перевод(ы):
#1: Дублированный | Лицензия
#2: Авторский | М. Яроцкий
Файл
Качество: BDRemux 1080p
Видео: MPEG-4 AVC, 1920x1080, 31.2 Mbit/s, 23.976 fps
Звук:
Аудио #01: 48 kHz, DTS-HD MA, 5.1, 3754 Kbps | Дублированный | RUS |
Аудио #02: 48 kHz, AC3, 5.1, 640 Kbps | Дублированный | RUS |
Аудио #03: 48 kHz, DTS-HD MA, 5.1, 4014 Kbps | Авторский | RUS |
Аудио #04: 48 kHz, TrueHD, 5.1, 3121 Kbps | Оригинал | ENG |
Аудио #05: 48 kHz, AC3, 5.1, 640 Kbps | Оригинал | ENG |
Субтитры: Английские

General
Unique ID : 216573096462942161227269966938950710327 (0xA2EE760EC1A272BE9F851B49B78DB437)
Complete name : G:VideoSSDOnce.Upon.a.Time.in.Venice.2017.BDREMUX.1080p.ExKinoRay.mkv
Format : Matroska
Format version : Version 4 / Version 2
File size : 28.6 GiB
Duration : 1 h 34 min
Overall bit rate mode : Variable
Overall bit rate : 43.4 Mb/s
Movie name : Once.Upon.a.Time.in.Venice.2017.BDREMUX.1080p.ExKinoRay
Encoded date : UTC 2017-11-17 05:40:44
Writing application : mkvmerge v17.0.0 ('Be Ur Friend') 64-bit
Writing library : libebml v1.3.5 + libmatroska v1.4.8
Video
ID : 1
Format : AVC
Format/Info : Advanced Video Codec
Format profile : High@L4.1
Format settings : CABAC / 4 Ref Frames
Format settings, CABAC : Yes
Format settings, RefFrames : 4 frames
Codec ID : V_MPEG4/ISO/AVC
Duration : 1 h 34 min
Bit rate mode : Variable
Bit rate : 31.2 Mb/s
Maximum bit rate : 35.0 Mb/s
Width : 1 920 pixels
Height : 1 080 pixels
Display aspect ratio : 16:9
Frame rate mode : Constant
Frame rate : 23.976 (24000/1001) FPS
Standard : NTSC
Color space : YUV
Chroma subsampling : 4:2:0
Bit depth : 8 bits
Scan type : Progressive
Bits/(Pixel*Frame) : 0.627
Stream size : 20.6 GiB (72%)
Language : English
Default : Yes
Forced : No
Color range : Limited
Color primaries : BT.709
Transfer characteristics : BT.709
Matrix coefficients : BT.709
Audio #1
ID : 2
Format : DTS
Format/Info : Digital Theater Systems
Format profile : MA / Core
Mode : 16
Format settings, Endianness : Big
Codec ID : A_DTS
Duration : 1 h 34 min
Bit rate mode : Variable / Constant
Bit rate : 3 754 kb/s / 1 509 kb/s
Channel(s) : 6 channels
Channel positions : Front: L C R, Side: L R, LFE
Sampling rate : 48.0 kHz
Frame rate : 93.750 FPS (512 SPF)
Bit depth : 24 bits
Compression mode : Lossless / Lossy
Stream size : 2.48 GiB (9%)
Title : Dub [License]
Language : Russian
Default : Yes
Forced : No
Audio #2
ID : 3
Format : AC-3
Format/Info : Audio Coding 3
Format settings, Endianness : Big
Codec ID : A_AC3
Duration : 1 h 34 min
Bit rate mode : Constant
Bit rate : 640 kb/s
Channel(s) : 6 channels
Channel positions : Front: L C R, Side: L R, LFE
Sampling rate : 48.0 kHz
Frame rate : 31.250 FPS (1536 SPF)
Bit depth : 16 bits
Compression mode : Lossy
Stream size : 432 MiB (1%)
Title : Dub [License]
Language : Russian
Service kind : Complete Main
Default : No
Forced : No
Audio #3
ID : 4
Format : DTS
Format/Info : Digital Theater Systems
Format profile : MA / Core
Mode : 16
Format settings, Endianness : Big
Codec ID : A_DTS
Duration : 1 h 34 min
Bit rate mode : Variable / Constant
Bit rate : 4 014 kb/s / 1 509 kb/s
Channel(s) : 6 channels
Channel positions : Front: L C R, Side: L R, LFE
Sampling rate : 48.0 kHz
Frame rate : 93.750 FPS (512 SPF)
Bit depth : 24 bits
Compression mode : Lossless / Lossy
Stream size : 2.64 GiB (9%)
Title : AVO
Language : Russian
Default : No
Forced : No
Audio #4
ID : 5
Format : TrueHD
Codec ID : A_TRUEHD
Duration : 1 h 34 min
Bit rate mode : Variable
Bit rate : 3 121 kb/s
Maximum bit rate : 4 359 kb/s
Channel(s) : 6 channels
Channel positions : Front: L C R, Side: L R, LFE
Sampling rate : 48.0 kHz
Frame rate : 1 200.000 FPS (40 SPF)
Compression mode : Lossless
Stream size : 2.06 GiB (7%)
Title : Original
Language : English
Default : No
Forced : No
Audio #5
ID : 6
Format : AC-3
Format/Info : Audio Coding 3
Format settings, Endianness : Big
Codec ID : A_AC3
Duration : 1 h 34 min
Bit rate mode : Constant
Bit rate : 640 kb/s
Channel(s) : 6 channels
Channel positions : Front: L C R, Side: L R, LFE
Sampling rate : 48.0 kHz
Frame rate : 31.250 FPS (1536 SPF)
Bit depth : 16 bits
Compression mode : Lossy
Stream size : 432 MiB (1%)
Language : English
Service kind : Complete Main
Default : No
Forced : No
Text
ID : 7
Format : UTF-8
Codec ID : S_TEXT/UTF8
Codec ID/Info : UTF-8 Plain Text
Duration : 1 h 30 min
Bit rate : 67 b/s
Count of elements : 1417
Stream size : 44.7 KiB (0%)
Title : Full
Language : English
Default : No
Forced : No
Menu
00:00:00.000 : en:00:00:00.000
00:18:52.214 : en:00:18:52.214
00:32:57.601 : en:00:32:57.601
00:49:04.525 : en:00:49:04.525
01:02:24.282 : en:01:02:24.282
01:11:58.773 : en:01:11:58.773
01:21:52.241 : en:01:21:52.241
01:30:02.480 : en:01:30:02.480

Релиз от: Автор релиза:
Подпишись на меня, кликни по картинке > :



   Похожие торренты   Торрент   Размер 
В этой теме нет новых непрочитанных сообщений. Его собачье дело / Once Upon a Time in Venice (2017) BDRemux 1080p | RUS Transfer | Лицензия

6 | 1

15.1 ГБ

В этой теме нет новых непрочитанных сообщений. Его собачье дело / Once Upon a Time in Venice (2017) BDRip-AVC от ExKinoRay | RUS Transfer | Лицензия

100 | 5

745.8 МБ

В этой теме нет новых непрочитанных сообщений. Его собачье дело / Once Upon a Time in Venice (2017) Blu-ray 1080p | Rus Transfer | Лицензия

12 | 6

17.66 ГБ

В этой теме нет новых непрочитанных сообщений. Его собачье дело / Once Upon a Time in Venice (2017) BDRip от MegaPeer | RUS Transfer | Лицензия

70 | 2

1.46 ГБ

В этой теме нет новых непрочитанных сообщений. Его собачье дело / Once Upon a Time in Venice (2017) BDRemux 1080p | iTunes

136 | 31

17.56 ГБ

В этой теме нет новых непрочитанных сообщений. Его собачье дело / Once Upon a Time in Venice (2017) BDRip от ExKinoRay | Лицензия

172 | 5

1.46 ГБ

В этой теме нет новых непрочитанных сообщений. Его собачье дело / Once Upon a Time in Venice (2017) BDRip 1080p от ExKinoRay | iTunes

303 | 17

7.93 ГБ




Вы не можете начинать темы
Вы не можете отвечать на сообщения
Вы не можете редактировать свои сообщения
Вы не можете удалять свои сообщения
Вы не можете добавлять вложения

Перейти:  
Для Мосгорсуда, Роскомнадзора и рекламодателей: mosgorsud-torrent[собачка]yandex.ru
 Вход
ppkBB3cker v.2 © 2008-2014 @ PPK
[ Time : 0.030s | 20 Queries | GZIP : Off ]

cron