img image001 image001 image001 image001 image001 image001 image001 image001 image001 image001 image001 image001 image001 image001 image001

Planets Sun Sun Sun
Статистика раздачи
Автор: Nickolas3434 | Размер: 6.12 ГБ | Добавлен: 17 ноя 2017
Раздают: 5    Качают: 0
Скачать торрент
Скачать торрент
Описание торрента

СообщениеДобавлено: 17 ноя 2017 

Название: Марго на свадьбе
Оригинальное название: Margot at the Wedding
Год выпуска: 2007
Жанр: Драма
Выпущено: США, Paramount Vantage
Режиссер: Ноа Баумбах
В ролях: Николь Кидман, Дженнифер Джейсон Ли, Джек Блэк, Зейн Пэйс, Сьюзэн Блэкуелл, Флора Кросс, Сет Барриш, Мэттью Аркин, Майкл Каллен, Энид Грэхэм
О фильме: Марго Зеллер - невротичная, хоть и успешная, писательница из Нью-Йорка, в связи с новостью об обручении своей сестры-неудачницы Полин решает навестить её на выходных. Вместе со своим сыном-подростком Клодом она приезжает к сестре в её провинциальный дом, с первоначальной целью наладить прохладные отношения с Полин и её женихом, однако после пары бокалов белого вина Марго выдаёт истинную цель своего визита - желание отговорить Полин от брака с увальнем Малкольмом. На глазах у Клода и Ингрид, маленькой дочки Полин, затухшая было семейная неприязнь разворачивается с новой силой. Вовлечёнными в скандал оказываются и бывшая страсть Марго - Дик, вместе со своей чересчур рано повзрослевшей дочкой Мэйзи...
Продолжительность: 01:32:35
Перевод #1: Профессиональный (двухголосый закадровый) НТВ+
Перевод #2: Профессиональный (двухголосый закадровый) Paramount Channel



General
Unique ID : 254816232283137952393231554958904531413 (0xBFB3D23A9F44A31F8BA8642B9C0019D5)
Complete name : F:Margot.at.the.Wedding.2007.1080p.WEB-DL.DD5.1.H.264.-whip93.mkv
Format : Matroska
Format version : Version 4 / Version 2
File size : 6.12 GiB
Duration : 1h 32mn
Overall bit rate mode : Variable
Overall bit rate : 9 460 Kbps
Movie name : Марго на свадьбе | Margot at the Wedding (2007) - Release by whip93
Encoded date : UTC 2017-10-21 11:52:44
Writing application : mkvmerge v6.1.0 ('Old Devil') built on Mar 4 2013 09:10:42
Writing library : libebml v1.3.0 + libmatroska v1.4.0
Video
ID : 1
Format : AVC
Format/Info : Advanced Video Codec
Format profile : High@L4
Format settings, CABAC : Yes
Format settings, ReFrames : 4 frames
Codec ID : V_MPEG4/ISO/AVC
Duration : 1h 32mn
Bit rate mode : Variable
Bit rate : 7 992 Kbps
Maximum bit rate : 15.0 Mbps
Width : 1 920 pixels
Height : 1 080 pixels
Display aspect ratio : 16:9
Frame rate mode : Constant
Frame rate : 23.976 fps
Color space : YUV
Chroma subsampling : 4:2:0
Bit depth : 8 bits
Scan type : Progressive
Bits/(Pixel*Frame) : 0.161
Stream size : 5.17 GiB (84%)
Title : Mastered by whip93
Language : English
Default : Yes
Forced : No
Color range : Limited
Color primaries : BT.709
Transfer characteristics : BT.709
Matrix coefficients : BT.709
Audio #1
ID : 2
Format : AC-3
Format/Info : Audio Coding 3
Mode extension : CM (complete main)
Format settings, Endianness : Big
Codec ID : A_AC3
Duration : 1h 32mn
Bit rate mode : Constant
Bit rate : 448 Kbps
Channel(s) : 6 channels
Channel positions : Front: L C R, Side: L R, LFE
Sampling rate : 48.0 KHz
Compression mode : Lossy
Stream size : 297 MiB (5%)
Title : DVO (НТВ+)
Language : Russian
Default : Yes
Forced : No
Audio #2
ID : 3
Format : AC-3
Format/Info : Audio Coding 3
Mode extension : CM (complete main)
Format settings, Endianness : Big
Codec ID : A_AC3
Duration : 1h 32mn
Bit rate mode : Constant
Bit rate : 192 Kbps
Channel(s) : 2 channels
Channel positions : Front: L R
Sampling rate : 48.0 KHz
Compression mode : Lossy
Stream size : 127 MiB (2%)
Title : DVO (Paramount Channel)
Language : Russian
Default : No
Forced : No
Audio #3
ID : 4
Format : E-AC-3
Format/Info : Audio Coding 3
Format settings, Endianness : Big
Codec ID : A_EAC3
Duration : 1h 32mn
Bit rate mode : Constant
Bit rate : 640 Kbps
Channel(s) : 6 channels
Channel positions : Front: L C R, Side: L R, LFE
Sampling rate : 48.0 KHz
Compression mode : Lossy
Stream size : 424 MiB (7%)
Title : Original
Language : English
Default : No
Forced : No
Text #1
ID : 5
Format : UTF-8
Codec ID : S_TEXT/UTF8
Codec ID/Info : UTF-8 Plain Text
Title : Crafty
Language : Russian
Default : No
Forced : No
Text #2
ID : 6
Format : UTF-8
Codec ID : S_TEXT/UTF8
Codec ID/Info : UTF-8 Plain Text
Title : Original (SDH)
Language : English
Default : No
Forced : No
Menu
00:00:00.100 : en:Chapter 1
00:08:19.113 : en:Chapter 2
00:15:46.312 : en:Chapter 3
00:24:39.842 : en:Chapter 4
00:34:37.859 : en:Chapter 5
00:42:19.325 : en:Chapter 6
00:49:48.861 : en:Chapter 7
00:56:57.199 : en:Chapter 8
01:04:06.712 : en:Chapter 9
01:14:01.426 : en:Chapter 10
01:22:42.951 : en:Chapter 11
01:27:25.640 : en:Chapter 12


Качество: WEB-DL 1080p (AMZN)
Видео: x264, 1920x1080 (16:9), 23.976 fps, ~7992 kbps avg, 0.161 bit/pixel
Аудио #1: Russian 48.0 KHz, AC3, 3/2 (L,C,R,l,r) + LFE ch, ~448.00 kbps avg |НТВ+|
Аудио #2: Russian 48.0 KHz, AC3, 2 (front: L,R) ch, ~192.00 kbps avg |Paramount Channel|
Аудио #3: English 48.0 KHz, EAC3, 3/2 (L,C,R,l,r) + LFE ch, ~640.00 kbps avg |Original|
Субтитры: русские (Crafty), английские (SDH)



   Похожие торренты   Торрент   Размер 
В этой теме нет новых непрочитанных сообщений. Марго на свадьбе / Margot at the Wedding (2007) WEB-DL 720 от Deadmauvlad | P2

6 | 1

3.39 ГБ

В этой теме нет новых непрочитанных сообщений. Марго на свадьбе / Margot at the Wedding (2007) WEB-DLRip от Koenig | P2

6 | 0

1.45 ГБ

В этой теме нет новых непрочитанных сообщений. Марго на свадьбе / Margot at the Wedding (2007) WEB-DLRip от Deadmauvlad | P2

96 | 10

1.47 ГБ

В этой теме нет новых непрочитанных сообщений. Марго на свадьбе / Margot at the Wedding (2007) HDTV 1080i от Generalfilm

24 | 11

3.38 ГБ

В этой теме нет новых непрочитанных сообщений. Королева Марго / La Reine Margot / Queen Margot (1994) BDRemux | New Director's Cut

46 | 26

39 ГБ

В этой теме нет новых непрочитанных сообщений. Королева Марго / La Reine Margot / Queen Margot (1994) BDRip от HQCLUB | New Director's Cut

91 | 49

2.9 ГБ

В этой теме нет новых непрочитанных сообщений. Королева Марго / La Reine Margot / Queen Margot (1994) BDRip 720p | New Director's Cut | P, P2, A, L1

26 | 22

19.44 ГБ




Вы не можете начинать темы
Вы не можете отвечать на сообщения
Вы не можете редактировать свои сообщения
Вы не можете удалять свои сообщения
Вы не можете добавлять вложения

Перейти:  
Для Мосгорсуда, Роскомнадзора и рекламодателей: mosgorsud-torrent[собачка]yandex.ru
 Вход
ppkBB3cker v.2 © 2008-2014 @ PPK
[ Time : 0.056s | 19 Queries | GZIP : Off ]

cron