img image001 image001 image001 image001 image001 image001 image001 image001 image001 image001 image001 image001 image001 image001 image001

Planets Sun Sun Sun
Статистика раздачи
Автор: Nickolas3434 | Размер: 1.46 ГБ | Добавлен: 17 ноя 2017
Раздают: 20    Качают: 0
Скачать торрент
Скачать торрент
Описание торрента

СообщениеДобавлено: 17 ноя 2017 

Одни / Единственные / Seuls
Страна: Франция Бельгия
Производство: Canal+ [fr], Echo Films, Scope Pictures, Faust Films Inc., CNC, Studio Canal
Год выпуска: 2017
Жанр: фэнтези
Продолжительность: 01:37:34
Режиссер: Давид Моро
Авторы сценария: Давид Моро, Фабьен Вельманн
В ролях: Зои Дойч, Эшли Джадд, Вирджиния Гарднер, Джулия Гарнер, Николас Браун, Израэль Бруссар, Демиан Бишир, Стефани Фантоцци
Описание: Шестнадцатилетняя Лейла, как обычно, неохотно просыпается рано утром. Однако сегодня никто не торопится её разбудить. Куда делись её заботливые родители? Сев на велосипед, она обыскивает пустынный город. Все вокруг словно испарились. Поймав себя на мысли, что она одна чудом выжила после необъяснимой катастрофы, девочка вдруг встречает четырёх подростков: Доджи, Ивана, Камиллу и Тьерри. Вместе они пытаются выяснить, что произошло, и учатся выживать вместе в опустевшем мире. Только одни ли они там на самом деле..?

Перевод: Авторский (одноголосый, закадровый) | Антон Карповский
Субтитры: отдельным файлом | французские

Качество: BDRip | исходник Blu-Ray (FRA) - Seuls.2017.FRENCH.1080p.BluRay.REMUX.AVC.DTS.HDMA-XANTAR
Формат: AVI
Видео кодек: XviD
Аудио кодек: AC3
Видео: 720x304 (2.35:1), 24.000 fps, XviD build 67 ~1 357 kbps avg
Аудио №1: 48.0 kHz, AC3 Dolby Digital, 3/2 (L,C,R,l,r) + LFE ch, ~384 kbps | RUS
Аудио №2: 48.0 kHz, AC3 Dolby Digital, 3/2 (L,C,R,l,r) + LFE ch, ~384 kbps | FRE
Формат субтитров: *SRT
Дата премьеры (мир): 23 января 2017

Релиз от: ylnian
General
Полное имя : Seuls.2017.BDRip-ylnian.avi
Формат : AVI
Формат/Информация : Audio Video Interleave
Размер файла : 1,46 Гбайт
Продолжительность : 1 ч. 37 м.
Общий поток : 2139 Кбит/сек
Программа кодирования : VirtualDubMod 1.5.10.2 (build 2540/release)
Библиотека кодирования : VirtualDubMod build 2540/release
Видео
Идентификатор : 0
Формат : MPEG-4 Visual
Профиль формата : Advanced Simple@L5
Настройки формата : BVOP1
Параметр BVOP формата : 1
Параметр QPel формата : Нет
Параметр GMC формата : Без точки перехода
Параметр матрицы формата : Default (MPEG)
Идентификатор кодека : XVID
Идентификатор кодека/Подсказка : XviD
Продолжительность : 1 ч. 37 м.
Битрейт : 1357 Кбит/сек
Ширина : 720 пикселей
Высота : 304 пикселя
Соотношение сторон : 2,35:1
Частота кадров : 24,000 кадра/сек
Цветовое пространство : YUV
Субдискретизация насыщенности : 4:2:0
Битовая глубина : 8 бит
Тип развёртки : Прогрессивная
Метод сжатия : С потерями
Бит/(Пиксели*Кадры) : 0.258
Размер потока : 947 Мбайт (63%)
Библиотека кодирования : XviD 67
Аудио #1
Идентификатор : 1
Формат : AC-3
Формат/Информация : Audio Coding 3
Идентификатор кодека : 2000
Продолжительность : 1 ч. 37 м.
Вид битрейта : Постоянный
Битрейт : 384 Кбит/сек
Каналы : 6 каналов
Расположение каналов : Front: L C R, Side: L R, LFE
Частота : 48,0 КГц
Частота кадров : 31,250 кадров/сек (1536 SPF)
Битовая глубина : 16 бит
Метод сжатия : С потерями
Размер потока : 268 Мбайт (18%)
Выравнивание : Разделение по промежуткам
Продолжительность промежутка : 42 мс. (1,00 видеокадр)
Время предзагрузки промежутка : 500 мс.
Заголовок : RUS - AVO - Karpovsky
Аудио #2
Идентификатор : 2
Формат : AC-3
Формат/Информация : Audio Coding 3
Идентификатор кодека : 2000
Продолжительность : 1 ч. 37 м.
Вид битрейта : Постоянный
Битрейт : 384 Кбит/сек
Каналы : 6 каналов
Расположение каналов : Front: L C R, Side: L R, LFE
Частота : 48,0 КГц
Частота кадров : 31,250 кадров/сек (1536 SPF)
Битовая глубина : 16 бит
Метод сжатия : С потерями
Размер потока : 268 Мбайт (18%)
Выравнивание : Разделение по промежуткам
Продолжительность промежутка : 42 мс. (1,00 видеокадр)
Время предзагрузки промежутка : 500 мс.
Заголовок : Franch
Общее
Полное имя : Seuls.2017.BDRip-ylnian_fre.srt
Формат : SubRip
Размер файла : 70,2 Кбайт
Текст
Формат : SubRip
Метод сжатия : Без потерь



   Похожие торренты   Торрент   Размер 
В этой теме нет новых непрочитанных сообщений. Одни / Seuls (2017) BDRip-AVC | А

40 | 0

1.45 ГБ

В этой теме нет новых непрочитанных сообщений. Одни / Seuls (2017) BDRip 720p | A

102 | 4

4.5 ГБ

В этой теме нет новых непрочитанных сообщений. Одни / Seuls (Давид Моро / David Moreau) [2017, фэнтези, HDRip] DVO

129 | 0

1.46 ГБ

В этой теме нет новых непрочитанных сообщений. The Last of Us + Left Behind / Одни из нас + Одни из нас: Оставшиеся позади [PS3] [EUR] [Ru/En/Pl] [4.30] [1.06 / 1 DLC] [Cobra ODE / E3 ODE PRO ISO] (2013)

25 | 3

34.18 ГБ

В этой теме нет новых непрочитанных сообщений. Мы - легенды / Seuls two (2008) BDRip 720p

39 | 5

4.63 ГБ

В этой теме нет новых непрочитанных сообщений. Ни когда не ходите в поход одни / Never Hike Alone (2017) WEBRip | L2

98 | 3

714.24 МБ

В этой теме нет новых непрочитанных сообщений. Ни когда не ходите в поход одни / Never Hike Alone (2017) WEBRip 720p | L2

226 | 4

1.02 ГБ




Вы не можете начинать темы
Вы не можете отвечать на сообщения
Вы не можете редактировать свои сообщения
Вы не можете удалять свои сообщения
Вы не можете добавлять вложения

Перейти:  
Для Мосгорсуда, Роскомнадзора и рекламодателей: mosgorsud-torrent[собачка]yandex.ru
 Вход
ppkBB3cker v.2 © 2008-2014 @ PPK
[ Time : 1.010s | 18 Queries | GZIP : Off ]

cron