img image001 image001 image001 image001 image001 image001 image001 image001 image001 image001 image001 image001 image001 image001 image001

Planets Sun Sun Sun
Статистика раздачи
Автор: Nickolas3434 | Размер: 1.45 ГБ | Добавлен: 17 ноя 2017
Раздают: 40    Качают: 0
Скачать торрент
Скачать торрент
Описание торрента

СообщениеДобавлено: 17 ноя 2017 

Одни / Единственные / Seuls
Страна: Франция Бельгия
Производство: Canal+ [fr], Echo Films, Scope Pictures, Faust Films Inc., CNC, Studio Canal
Год выпуска: 2017
Жанр: фэнтези
Продолжительность: 01:37:34
Режиссер: Давид Моро
Авторы сценария: Давид Моро, Фабьен Вельманн
В ролях: София Лезафр, Стефан Бак, Жан-Стан Ду Пак, Пол Скарфоглио, Ким Локхарт, Тома Доре, Инес Спиридонов, Жанн Гитте
Описание: Шестнадцатилетняя Лейла, как обычно, неохотно просыпается рано утром. Однако сегодня никто не торопится её разбудить. Куда делись её заботливые родители? Сев на велосипед, она обыскивает пустынный город. Все вокруг словно испарились. Поймав себя на мысли, что она одна чудом выжила после необъяснимой катастрофы, девочка вдруг встречает четырёх подростков: Доджи, Ивана, Камиллу и Тьерри. Вместе они пытаются выяснить, что произошло, и учатся выживать вместе в опустевшем мире. Только одни ли они там на самом деле..?

Перевод: Авторский (одноголосый, закадровый) | Антон Карповский
Субтитры: нет

Качество: BDRip-AVC | исходник Seuls.2017.FRENCH.COMPLETE.BLURAY-4FR
Формат: МКV
Видео кодек: AVC
Аудио кодек: АС3
Видео: 1074x448 (2.40:1), 24.000 fps, MPEG-4 AVC ~1 687 kbps avg
Аудио: 48.0 kHz, AC3 Dolby Digital, 3/2 (L,C,R,l,r) + LFE ch, ~448 kbps
Дата премьеры (мир): 23 января 2017

Релиз от: ivanes20031987
General
Complete name : Одни (2017) BDRip-AVC_ivanes20031987.mkv
Format : Matroska
Format version : Version 2
File size : 1.45 GiB
Duration : 1 h 37 min
Overall bit rate : 2 133 kb/s
Encoded date : UTC 2017-11-16 17:05:44
Writing application : mkvmerge v4.4.0 ('Die Wiederkehr') сборка от Jan 3 2011 21:40:45
Writing library : libebml v1.0.0 + libmatroska v1.0.0
Video
ID : 1
Format : AVC
Format/Info : Advanced Video Codec
Format profile : High@L4.1
Format settings, CABAC : Yes
Format settings, RefFrames : 10 frames
Codec ID : V_MPEG4/ISO/AVC
Duration : 1 h 37 min
Bit rate : 1 687 kb/s
Width : 1 074 pixels
Height : 448 pixels
Display aspect ratio : 2.40:1
Frame rate mode : Constant
Frame rate : 24.000 FPS
Color space : YUV
Chroma subsampling : 4:2:0
Bit depth : 8 bits
Scan type : Progressive
Bits/(Pixel*Frame) : 0.146
Stream size : 1.12 GiB (77%)
Writing library : x264 core 152 r2851kMod ba24899
Encoding settings : cabac=1 / ref=10 / deblock=1:-2:-1 / analyse=0x3:0x113 / me=umh / subme=10 / psy=1 / fade_compensate=0.00 / psy_rd=1.00:0.00 / mixed_ref=1 / me_range=32 / chroma_me=1 / trellis=2 / 8x8dct=1 / cqm=0 / deadzone=21,11 / fast_pskip=0 / chroma_qp_offset=-2 / threads=14 / lookahead_threads=3 / sliced_threads=0 / nr=0 / decimate=0 / interlaced=0 / bluray_compat=0 / constrained_intra=0 / bframes=10 / b_pyramid=2 / b_adapt=2 / b_bias=0 / direct=1 / weightb=1 / open_gop=0 / weightp=2 / keyint=240 / keyint_min=24 / scenecut=40 / intra_refresh=0 / rc_lookahead=60 / rc=2pass / mbtree=0 / bitrate=1687 / ratetol=1.0 / qcomp=0.60 / qpmin=0 / qpmax=69 / qpstep=4 / cplxblur=20.0 / qblur=0.5 / vbv_maxrate=50000 / vbv_bufsize=62500 / nal_hrd=none / filler=0 / ip_ratio=1.40 / pb_ratio=1.30 / aq=1:1.00
Default : Yes
Forced : No
Audio
ID : 2
Format : AC-3
Format/Info : Audio Coding 3
Format settings, Endianness : Big
Codec ID : A_AC3
Duration : 1 h 37 min
Bit rate mode : Constant
Bit rate : 448 kb/s
Channel(s) : 6 channels
Channel positions : Front: L C R, Side: L R, LFE
Sampling rate : 48.0 kHz
Frame rate : 31.250 FPS (1536 SPF)
Bit depth : 16 bits
Compression mode : Lossy
Stream size : 313 MiB (21%)
Title : Антон Карповский
Language : Russian
Service kind : Complete Main
Default : Yes
Forced : No



   Похожие торренты   Торрент   Размер 
В этой теме нет новых непрочитанных сообщений. Одни / Seuls (2017) BDRip | А

26 | 0

1.46 ГБ

В этой теме нет новых непрочитанных сообщений. Одни / Seuls (2017) BDRip 720p | A

58 | 2

4.5 ГБ

В этой теме нет новых непрочитанных сообщений. Одни / Seuls (Давид Моро / David Moreau) [2017, фэнтези, HDRip] DVO

129 | 0

1.46 ГБ

В этой теме нет новых непрочитанных сообщений. The Last of Us + Left Behind / Одни из нас + Одни из нас: Оставшиеся позади [PS3] [EUR] [Ru/En/Pl] [4.30] [1.06 / 1 DLC] [Cobra ODE / E3 ODE PRO ISO] (2013)

32 | 4

34.18 ГБ

В этой теме нет новых непрочитанных сообщений. Мы - легенды / Seuls two (2008) BDRip 720p

39 | 5

4.63 ГБ

В этой теме нет новых непрочитанных сообщений. Ни когда не ходите в поход одни / Never Hike Alone (2017) WEBRip | L2

107 | 4

714.24 МБ

В этой теме нет новых непрочитанных сообщений. Ни когда не ходите в поход одни / Never Hike Alone (2017) WEBRip 720p | L2

226 | 4

1.02 ГБ




Вы не можете начинать темы
Вы не можете отвечать на сообщения
Вы не можете редактировать свои сообщения
Вы не можете удалять свои сообщения
Вы не можете добавлять вложения

Перейти:  
Для Мосгорсуда, Роскомнадзора и рекламодателей: mosgorsud-torrent[собачка]yandex.ru
 Вход
ppkBB3cker v.2 © 2008-2014 @ PPK
[ Time : 0.051s | 18 Queries | GZIP : Off ]

cron