img image001 image001 image001 image001 image001 image001 image001 image001 image001 image001 image001 image001 image001 image001 image001

Planets Sun Sun Sun
Статистика раздачи
Автор: Nickolas3434 | Размер: 14.46 ГБ | Добавлен: 17 ноя 2017
Раздают: 6    Качают: 3
Скачать торрент
Скачать торрент
Описание торрента

СообщениеДобавлено: 17 ноя 2017 

Название: Чужой
Оригинальное название: Alien
Год выхода: 1979
Жанр: фантастика, ужасы
Режиссер: Ридли Скотт
В ролях: Сигурни Уивер, Том Скеррит, Вероника Картрайт, Гарри Дин Стэнтон, Джон Хёрт, Иэн Холм, Яфет Котто, Боладжи Бадеджо, Хелен Хортон, Эдди Пауэлл
О фильме:
В далеком будущем возвращающийся на Землю грузовой космический корабль перехватывает исходящий с неизвестной планеты неопознанный сигнал. Экипаж принимает решение совершить посадку и разобраться, в чем дело. Оказавшись на планете, астронавты обнаруживают неизвестный космический корабль с мёртвым инопланетным членом экипажа и неопознанные предметы, по виду напоминающие гигантские коконы.

Страна: США, Великобритания
Студия: Twentieth Century Fox, Brandywine Productions
Продолжительность: 01:56:59
Перевод: профессиональный (дублированный), авторский (одноголосый)
Субтитры: русские, английские
Файл
Формат: MKV
Качество: D-Theater Rip 1080p
Видео: MPEG-4 AVC / 13930 kbps / 1920x816 / 23.976 fps
Звук:
Аудио 1: Русский, DTS, 5.1, 48 KHz, 24 bit, 768 kbps | Профессиональный (дублированный)
Аудио 2: Русский, DTS, 5.1, 48 KHz, 24 bit, 1536 kbps | Авторский (Гаврилов)
Аудио 3: Английский, DTS, 5.1, 48 KHz, 24 bit, 1536 kbps | Оригинал
Format : Matroska
Format version : Version 2
File size : 14.5 GiB
Duration : 1 h 56 min
Overall bit rate : 17.7 Mb/s
Movie name : source:(D-Theater.MPEG-2.1080i),encoder:(Crusader3000),sound:(Прагматик)
Encoded date : UTC 2011-01-17 20:44:46
Writing application : mkvmerge v4.4.0 ('Die Wiederkehr') сборка от Oct 31 2010 21:52:48
Writing library : libebml v1.0.0 + libmatroska v1.0.0
Video
ID : 1
Format : AVC
Format/Info : Advanced Video Codec
Format profile : High@L4.1
Format settings, CABAC : Yes
Format settings, RefFrames : 5 frames
Codec ID : V_MPEG4/ISO/AVC
Duration : 1 h 56 min
Bit rate : 13.9 Mb/s
Width : 1 920 pixels
Height : 816 pixels
Display aspect ratio : 2.35:1
Frame rate mode : Constant
Frame rate : 23.976 (24000/1001) FPS
Color space : YUV
Chroma subsampling : 4:2:0
Bit depth : 8 bits
Scan type : Progressive
Bits/(Pixel*Frame) : 0.371
Stream size : 11.1 GiB (77%)
Title : Alien (Director's Cut) DTheater Rip 1080p
Writing library : x264 core 112 r1834 a51816a
Encoding settings : cabac=1 / ref=5 / deblock=1:0:0 / analyse=0x3:0x113 / me=umh / subme=10 / psy=1 / psy_rd=0.80:0.20 / mixed_ref=1 / me_range=32 / chroma_me=1 / trellis=2 / 8x8dct=1 / cqm=0 / deadzone=21,11 / fast_pskip=0 / chroma_qp_offset=-3 / threads=6 / sliced_threads=0 / nr=0 / decimate=0 / interlaced=0 / constrained_intra=0 / bframes=10 / b_pyramid=2 / b_adapt=2 / b_bias=0 / direct=3 / weightb=1 / open_gop=0 / weightp=2 / keyint=250 / keyint_min=23 / scenecut=40 / intra_refresh=0 / rc_lookahead=0 / rc=2pass / mbtree=0 / bitrate=13930 / ratetol=1.0 / qcomp=0.65 / qpmin=0 / qpmax=51 / qpstep=4 / cplxblur=20.0 / qblur=0.5 / vbv_maxrate=50000 / vbv_bufsize=62500 / ip_ratio=1.40 / pb_ratio=1.30 / aq=1:0.60 / nal_hrd=none
Language : English
Default : Yes
Forced : No
Color range : Limited
Matrix coefficients : BT.709
Audio #1
ID : 2
Format : DTS
Format/Info : Digital Theater Systems
Mode : 16
Format settings, Endianness : Big
Codec ID : A_DTS
Duration : 1 h 56 min
Bit rate mode : Constant
Bit rate : 755 kb/s
Channel(s) : 6 channels
Channel positions : Front: L C R, Side: L R, LFE
Sampling rate : 48.0 kHz
Frame rate : 93.750 FPS (512 SPF)
Bit depth : 24 bits
Compression mode : Lossy
Stream size : 631 MiB (4%)
Title : DTS 5.1 768 kbps | Дубляж
Language : Russian
Default : Yes
Forced : No
Audio #2
ID : 3
Format : DTS
Format/Info : Digital Theater Systems
Mode : 16
Format settings, Endianness : Big
Codec ID : A_DTS
Duration : 1 h 56 min
Bit rate mode : Constant
Bit rate : 1 510 kb/s
Channel(s) : 6 channels
Channel positions : Front: L C R, Side: L R, LFE
Sampling rate : 48.0 kHz
Frame rate : 93.750 FPS (512 SPF)
Bit depth : 24 bits
Compression mode : Lossy
Stream size : 1.23 GiB (9%)
Title : DTS 5.1 1536 kbps | Гаврилов
Language : Russian
Default : No
Forced : No
Audio #3
ID : 4
Format : DTS
Format/Info : Digital Theater Systems
Mode : 16
Format settings, Endianness : Big
Codec ID : A_DTS
Duration : 1 h 56 min
Bit rate mode : Constant
Bit rate : 1 510 kb/s
Channel(s) : 6 channels
Channel positions : Front: L C R, Side: L R, LFE
Sampling rate : 48.0 kHz
Frame rate : 93.750 FPS (512 SPF)
Bit depth : 24 bits
Compression mode : Lossy
Stream size : 1.23 GiB (9%)
Title : DTS 5.1 1536 kbps | Original
Language : English
Default : No
Forced : No
Text #1
ID : 5
Format : UTF-8
Codec ID : S_TEXT/UTF8
Codec ID/Info : UTF-8 Plain Text
Title : Russian, from Blu-ray CEE
Language : Russian
Default : No
Forced : No
Text #2
ID : 6
Format : UTF-8
Codec ID : S_TEXT/UTF8
Codec ID/Info : UTF-8 Plain Text
Title : Russian, Киномания
Language : Russian
Default : No
Forced : No
Text #3
ID : 7
Format : UTF-8
Codec ID : S_TEXT/UTF8
Codec ID/Info : UTF-8 Plain Text
Title : Russian, Расширенные вставки для озвучки Гоблина
Language : Russian
Default : No
Forced : No
Text #4
ID : 8
Format : UTF-8
Codec ID : S_TEXT/UTF8
Codec ID/Info : UTF-8 Plain Text
Title : English, PSDH
Language : English
Default : No
Forced : No



   Похожие торренты   Торрент   Размер 
В этой теме нет новых непрочитанных сообщений. Чужой / Alien (1979) D-Theater Rip-AVC от ExKinoRay | Director's Cut | D, A

37 | 2

4.4 ГБ

В этой теме нет новых непрочитанных сообщений. Чужой / Alien (1979) D-Theater Remux 1080i | Director's Cut | D, P, A

5 | 3

22.24 ГБ

В этой теме нет новых непрочитанных сообщений. Чужой / Alien (1979) BDRip 1080p | Director's Cut

108 | 13

7.76 ГБ

В этой теме нет новых непрочитанных сообщений. Чужой / Alien (1979) BD Remux 1080p Director's Cut

2 | 7

21.52 ГБ

В этой теме нет новых непрочитанных сообщений. Чужой / Alien (1979) BDRip 1080p | Director's Cut

38 | 7

4.37 ГБ

В этой теме нет новых непрочитанных сообщений. Чужой / Alien [Director's Cut] (1979) BDRip 1080p Rip by Neofilm

7 | 4

7.94 ГБ

В этой теме нет новых непрочитанных сообщений. Чужой / Alien (1979) BDRip-HEVC 1080p от ХиМиК | Director's Cut | D, P, A

20 | 0

6.52 ГБ




Вы не можете начинать темы
Вы не можете отвечать на сообщения
Вы не можете редактировать свои сообщения
Вы не можете удалять свои сообщения
Вы не можете добавлять вложения

Перейти:  
Для Мосгорсуда, Роскомнадзора и рекламодателей: mosgorsud-torrent[собачка]yandex.ru
 Вход
ppkBB3cker v.2 © 2008-2014 @ PPK
[ Time : 0.034s | 19 Queries | GZIP : Off ]

cron