img image001 image001 image001 image001 image001 image001 image001 image001 image001 image001 image001 image001 image001 image001 image001

Planets Sun Sun Sun
Статистика раздачи
Автор: Nickolas3434 | Размер: 26 ГБ | Добавлен: 17 ноя 2017
Раздают: 1    Качают: 0
Скачать торрент
Скачать торрент
Описание торрента

СообщениеДобавлено: 17 ноя 2017 

Информация о фильме
Название: Тихое местечко за городом
Оригинальное название: Un tranquillo posto di campagna
Год выхода: 1968
Жанр: ужасы, драма
Режиссер: Элио Петри
В ролях: Франко Неро, Ванесса Редгрейв, Жорж Жере, Габриэлла Боккардо, Мадлен Дамьен, Валерио Руджери, Рита Калдерони, Renato Menegotto, Арнальдо Момо, Сара Момо, Отелло Каззола, Константино Де Люка, Marino Bagiola, Пьеро Де Франчески, Камилло Бесенсон, Ренато Лупи
Описание: Молодой художник Леонардо ищет себе спокойное место, чтобы творить. Его картины неплохо продаются, поэтому жена снимает по его просьбе старинный особняк, где когда-то жила нимфоманка-графиня. Она погибла во время войны, но что-то от неё в этом дом ещё осталось. По ночам скрипят половицы, Леонардо мучают кошмары и видения, кто-то опрокидывает краски со стола. После всего этого художник решает хоть что-то узнать о прежней жительнице особняка, что приводит к трагическим последствиям…

Страна: Италия, Франция
Продолжительность: 01:46:12
Перевод: Любительский (одноголосый закадровый) В. Огородников
Субтитры: английские
Оригинальная аудиодорожка: итальянский
Файл
Качество: BDRemux 1080р
Видео: AVC / 1920x1080 / 16:9 / 23.976 fps / 29872 Kbps / High@L4.1
Аудио 1: Rus: AC3 / 48.0 KHz / 2.0 / 192 kbps / VO / В. Огородников
Аудио 2: Eng: DTS-HD MA / 48.0 KHz / 2.0 / 1692 kbps / 24 bit (DTS Core 48.0 KHz / 2.0 / 1509kbps / 24 bit)
Аудио 3: Ita: DTS-HD MA / 48.0 KHz / 2.0 / 1536 kbps / 24 bit (DTS Core 48.0 KHz / 2.0 / 1509kbps / 24 bit)
Аудио 4: Eng: DTS-HD MA / 48.0 KHz / 2.0 / 1720 kbps / 24 bit (DTS Core 48.0 KHz / 2.0 / 1509kbps / 24 bit) Commentary

Общее
Уникальный идентификатор : 217846768629630137348645617934982557632 (0xA3E3C2F19C3B2678B271E1FF48D1AFC0)
Полное имя : A.Quiet.Place.In.The.Country.1968.BDRemux.1080p.mkv
Формат : Matroska
Версия формата : Version 4 / Version 2
Размер файла : 26,0 Гбайт
Продолжительность : 1 ч. 46 м.
Режим общего битрейта : Переменный
Общий поток : 35,0 Мбит/сек
Название фильма : A.Quiet.Place.In.The.Country.1968.BDRemux.1080p-porvaliparus
Дата кодирования : UTC 2017-11-17 10:26:38
Программа кодирования : mkvmerge v17.0.0 ('Be Ur Friend') 64-bit
Библиотека кодирования : libebml v1.3.5 + libmatroska v1.4.8
Видео
Идентификатор : 1
Формат : AVC
Формат/Информация : Advanced Video Codec
Профиль формата : High@L4.1
Настройки формата : CABAC / 4 Ref Frames
Параметр CABAC формата : Да
Параметр RefFrames формата : 4 кадра
Идентификатор кодека : V_MPEG4/ISO/AVC
Продолжительность : 1 ч. 46 м.
Вид битрейта : Переменный
Битрейт : 29,9 Мбит/сек
Максимальный битрейт : 34,0 Мбит/сек
Ширина : 1920 пикселей
Высота : 1080 пикселей
Соотношение сторон : 16:9
Режим частоты кадров : Постоянный
Частота кадров : 23,976 (24000/1001) кадра/сек
Цветовое пространство : YUV
Субдискретизация насыщенности : 4:2:0
Битовая глубина : 8 бит
Тип развёртки : Прогрессивная
Бит/(Пиксели*Кадры) : 0.601
Размер потока : 22,2 Гбайт (85%)
Заголовок : A.Quiet.Place.In.The.Country.1968.BDRemux.1080p
Default : Да
Forced : Нет
Аудио #1
Идентификатор : 2
Формат : AC-3
Формат/Информация : Audio Coding 3
Идентификатор кодека : A_AC3
Продолжительность : 1 ч. 46 м.
Вид битрейта : Постоянный
Битрейт : 192 Кбит/сек
Каналы : 2 канала
Расположение каналов : Front: L R
Частота : 48,0 КГц
Частота кадров : 31,250 кадров/сек (1536 SPF)
Битовая глубина : 16 бит
Метод сжатия : С потерями
Размер потока : 146 Мбайт (1%)
Заголовок : VO
Язык : Russian
Default : Да
Forced : Нет
Аудио #2
Идентификатор : 3
Формат : DTS
Формат/Информация : Digital Theater Systems
Профиль формата : MA / Core
Идентификатор кодека : A_DTS
Продолжительность : 1 ч. 46 м.
Вид битрейта : Переменный / Постоянный
Битрейт : 1692 Кбит/сек / 1509 Кбит/сек
Каналы : 2 канала
Расположение каналов : Front: L R
Частота : 48,0 КГц
Частота кадров : 93,750 кадра/сек (512 SPF)
Битовая глубина : 24 бит
Метод сжатия : Без потерь / Lossy
Размер потока : 1,26 Гбайт (5%)
Язык : English
Default : Нет
Forced : Нет
Аудио #3
Идентификатор : 4
Формат : DTS
Формат/Информация : Digital Theater Systems
Профиль формата : MA / Core
Идентификатор кодека : A_DTS
Продолжительность : 1 ч. 46 м.
Вид битрейта : Переменный / Постоянный
Битрейт : 1536 Кбит/сек / 1509 Кбит/сек
Каналы : 2 канала
Расположение каналов : Front: L R
Частота : 48,0 КГц
Частота кадров : 93,750 кадра/сек (512 SPF)
Битовая глубина : 24 бит
Метод сжатия : Без потерь / Lossy
Размер потока : 1,16 Гбайт (4%)
Язык : Italian
Default : Нет
Forced : Нет
Аудио #4
Идентификатор : 5
Формат : DTS
Формат/Информация : Digital Theater Systems
Профиль формата : MA / Core
Идентификатор кодека : A_DTS
Продолжительность : 1 ч. 46 м.
Вид битрейта : Переменный / Постоянный
Битрейт : 1720 Кбит/сек / 1509 Кбит/сек
Каналы : 2 канала
Расположение каналов : Front: L R
Частота : 48,0 КГц
Частота кадров : 93,750 кадра/сек (512 SPF)
Битовая глубина : 24 бит
Метод сжатия : Без потерь / Lossy
Размер потока : 1,28 Гбайт (5%)
Заголовок : Commentary
Язык : English
Default : Нет
Forced : Нет
Текст
Идентификатор : 6
Формат : UTF-8
Идентификатор кодека : S_TEXT/UTF8
Идентификатор кодека/Информация : UTF-8 Plain Text
Продолжительность : 1 ч. 42 м.
Битрейт : 34 бит/сек
ElementCount : 729
Размер потока : 25,6 Кбайт (0%)
Язык : English
Default : Нет
Forced : Нет
Меню
00:00:00.000 : en:00:00:00.000
00:10:20.286 : en:00:10:20.286
00:18:37.783 : en:00:18:37.783
00:25:50.299 : en:00:25:50.299
00:37:59.068 : en:00:37:59.068
00:47:31.265 : en:00:47:31.265
00:56:38.145 : en:00:56:38.145
01:04:32.327 : en:01:04:32.327
01:14:10.404 : en:01:14:10.404
01:22:25.274 : en:01:22:25.274
01:35:00.361 : en:01:35:00.361
01:44:25.301 : en:01:44:25.301



   Похожие торренты   Торрент   Размер 
В этой теме нет новых непрочитанных сообщений. Тихое местечко за городом / Un tranquillo posto di campagna (1968) HDRip от Koenig | A

14 | 1

1.45 ГБ

В этой теме нет новых непрочитанных сообщений. Тихое местечко за городом / Un tranquillo posto di campagna (1969) DVDRip - Generalfilm

34 | 28

1.37 ГБ

В этой теме нет новых непрочитанных сообщений. Страх над городом / Peur sur la ville (1975) BDRemux 1080p | P

12 | 33

20.55 ГБ

В этой теме нет новых непрочитанных сообщений. Деревенщина / Il ragazzo di campagna (1984) DVDRip | L1

129 | 7

1.45 ГБ

В этой теме нет новых непрочитанных сообщений. Идеальное место для убийства / Un posto ideale per uccidere (1971) DVDRip | L1

4 | 0

1.47 ГБ

В этой теме нет новых непрочитанных сообщений. Горячее местечко / Горячая точка / The Hot Spot (1990) HDTVRip от NovaLan

6 | 8

2.19 ГБ

В этой теме нет новых непрочитанных сообщений. Тихое сердце / Stille hjerte (2014) HDRip от -=HD-NET=- | КПК | Р

15 | 4

394.03 МБ




Вы не можете начинать темы
Вы не можете отвечать на сообщения
Вы не можете редактировать свои сообщения
Вы не можете удалять свои сообщения
Вы не можете добавлять вложения

Перейти:  
Для Мосгорсуда, Роскомнадзора и рекламодателей: mosgorsud-torrent[собачка]yandex.ru
 Вход
ppkBB3cker v.2 © 2008-2014 @ PPK
[ Time : 0.045s | 19 Queries | GZIP : Off ]

cron